<?xml version="1.0" standalone="no"?>
<!DOCTYPE svg PUBLIC "-//W3C//DTD SVG 1.1//EN" "http://www.w3.org/Graphics/SVG/1.1/DTD/svg11.dtd" >
<svg>
<metadata>
Created by FontForge 20110222 at Tue Jul 23 20:58:19 2013
 By Orthosie Webhosting
Copyright (c) Gewa 2013, all rights reserved
</metadata>
<defs>
<font id="FMSlimRegular" horiz-adv-x="1339" >
  <font-face 
    font-family="FMSlimRegular"
    font-weight="400"
    font-stretch="normal"
    units-per-em="2048"
    panose-1="2 0 5 3 0 0 0 2 0 3"
    ascent="1554"
    descent="-494"
    x-height="1051"
    cap-height="1556"
    bbox="-121 -541 2159 2093"
    underline-thickness="102"
    underline-position="-102"
    unicode-range="U+0020-FB04"
  />
<missing-glyph horiz-adv-x="868" 
d="M119 1493l207 272q43 57 101 58.5t101 -58.5l209 -272h-98l-213 231l-211 -231h-96z" />
    <glyph glyph-name=".notdef" horiz-adv-x="868" 
d="M119 1493l207 272q43 57 101 58.5t101 -58.5l209 -272h-98l-213 231l-211 -231h-96z" />
    <glyph glyph-name=".null" horiz-adv-x="0" 
 />
    <glyph glyph-name="nonmarkingreturn" horiz-adv-x="682" 
 />
    <glyph glyph-name="space" unicode=" " horiz-adv-x="651" 
 />
    <glyph glyph-name="exclam" unicode="!" horiz-adv-x="581" 
d="M199 80q0 41 24.5 65.5t69.5 24.5q90 0 90 -90q0 -96 -90 -96q-94 0 -94 96zM233 379v1198h115v-1198h-115z" />
    <glyph glyph-name="quotedbl" unicode="&#x22;" horiz-adv-x="622" 
d="M143 1554h111l-8 -358h-92zM367 1554h108l-8 -358h-90z" />
    <glyph glyph-name="numbersign" unicode="#" horiz-adv-x="1531" 
d="M197 584l16 100h309l47 279h-311l16 98h310l55 332h100l-53 -332h272l54 332h100l-55 -332h307l-14 -98h-308l-47 -279h308l-15 -100h-309l-57 -351h-101l58 351h-273l-57 -351h-100l57 351h-309zM625 684h270l45 279h-272z" />
    <glyph glyph-name="dollar" unicode="$" horiz-adv-x="1286" 
d="M98 244l103 61q57 -100 148 -144t224 -50v671q-104 37 -181 75t-125 87t-71.5 110.5t-23.5 145.5q0 160 103.5 258t297.5 111v139h111v-139q53 -2 110.5 -14.5t110.5 -38t100.5 -66.5t81.5 -102l-92 -64q-61 100 -137 139t-174 43v-602q96 -31 178 -65.5t141.5 -85.5
t94.5 -125t35 -180q0 -78 -19.5 -148t-71 -124t-137.5 -90t-221 -42v-135h-111v135q-76 2 -146.5 16.5t-133 43t-112.5 74t-83 106.5zM289 1208q0 -51 9 -92t39 -76.5t86 -68.5t150 -66v561q-51 -4 -101 -17t-91 -43t-66.5 -78t-25.5 -120zM684 111q184 8 256 80.5t72 195.5
q0 86 -24.5 143.5t-67.5 97.5t-103.5 66.5t-132.5 50.5v-634z" />
    <glyph glyph-name="percent" unicode="%" horiz-adv-x="1652" 
d="M154 1251q0 76 25.5 137.5t72.5 107.5t108.5 70.5t133.5 24.5q70 0 132 -24.5t107 -68.5t71.5 -107.5t26.5 -139.5q0 -78 -25.5 -139t-70.5 -105t-107.5 -69t-133.5 -25q-72 0 -133.5 25t-108.5 69t-72.5 105t-25.5 139zM231 -23l1022 1582h123l-1009 -1582h-136z
M264 1251q0 -100 63.5 -167.5t166.5 -67.5q102 0 165.5 67.5t63.5 167.5q0 106 -62.5 170t-166.5 64q-106 0 -168 -64t-62 -170zM813 311q0 74 25.5 136.5t71.5 107.5t107.5 70.5t135.5 25.5q70 0 132.5 -25.5t108.5 -71.5t72.5 -107.5t26.5 -135.5q0 -72 -26.5 -134
t-72.5 -107t-108.5 -70t-132.5 -25q-72 0 -133.5 25t-107.5 70t-72.5 107t-26.5 134zM920 311q0 -100 66.5 -165.5t166.5 -65.5t164.5 65.5t64.5 165.5q0 106 -61 172t-168 66q-106 0 -169.5 -66t-63.5 -172z" />
    <glyph glyph-name="ampersand" unicode="&#x26;" horiz-adv-x="1388" 
d="M98 389q0 80 23.5 152.5t64.5 136t94.5 120t112.5 103.5q-61 74 -92 144.5t-31 162.5q0 74 27 136.5t74 107.5t111.5 69.5t138.5 24.5q125 0 216 -66.5t119 -185.5l-106 -41q-25 92 -80 139.5t-149 47.5q-104 0 -168 -58.5t-64 -162.5q0 -84 33 -148.5t92 -128.5
q115 -129 233.5 -257t239.5 -249q66 121 103 234l106 -45q-23 -66 -52.5 -135.5t-72.5 -139.5q41 -43 88 -89t93 -93t92.5 -90t89.5 -78h-170q-59 55 -124 116.5t-128 129.5q-84 -117 -200 -191.5t-277 -74.5q-201 0 -319 103t-118 306zM215 389q0 -150 94 -225.5t234 -75.5
q123 0 221 69.5t164 172.5q-111 113 -228.5 238.5t-228.5 244.5q-117 -86 -186.5 -192.5t-69.5 -231.5z" />
    <glyph glyph-name="quotesingle" unicode="'" horiz-adv-x="391" 
d="M139 1554h111l-6 -364h-97z" />
    <glyph glyph-name="parenleft" unicode="(" horiz-adv-x="608" 
d="M137 711q0 276 56.5 534t166.5 520h117q-117 -266 -172 -524t-55 -526q0 -291 54 -541t167 -479h-121q-104 231 -158.5 483t-54.5 533z" />
    <glyph glyph-name="parenright" unicode=")" horiz-adv-x="608" 
d="M129 1765h117q111 -262 168 -518t57 -532q0 -281 -56.5 -535t-162.5 -485h-119q113 229 167 479t54 541q0 268 -56 526t-169 524z" />
    <glyph glyph-name="asterisk" unicode="*" horiz-adv-x="1032" 
d="M119 1157v107l342 -23l-182 283l92 55l147 -301l150 299l90 -53l-183 -283l338 21v-107l-333 14l184 -276l-92 -55l-154 301l-160 -299l-90 53l191 276z" />
    <glyph glyph-name="plus" unicode="+" horiz-adv-x="1202" 
d="M127 702v107h422v432h104v-432h424v-107h-424v-434h-104v434h-422z" />
    <glyph glyph-name="comma" unicode="," horiz-adv-x="446" 
d="M129 80q0 49 26.5 71.5t63.5 22.5q51 0 72.5 -30.5t21.5 -80.5q0 -37 -13 -78.5t-32.5 -84.5t-44 -84t-49.5 -74l-43 12q31 76 51.5 127t28.5 113q-45 8 -63.5 31.5t-18.5 54.5z" />
    <glyph glyph-name="hyphen" unicode="-" horiz-adv-x="1067" 
d="M184 514v100h703v-100h-703z" />
    <glyph glyph-name="period" unicode="." horiz-adv-x="481" 
d="M154 78q0 88 88 88q90 0 90 -88q0 -94 -90 -94q-88 0 -88 94z" />
    <glyph glyph-name="slash" unicode="/" horiz-adv-x="935" 
d="M86 -37l682 1622h119l-682 -1622h-119z" />
    <glyph glyph-name="zero" unicode="0" horiz-adv-x="1476" 
d="M172 780q0 141 21.5 284.5t83 256.5t174 183.5t294.5 70.5t293 -70.5t169.5 -184.5t77 -256t18.5 -284q0 -137 -20.5 -278.5t-81 -256t-170 -186t-286.5 -71.5q-182 0 -293.5 70.5t-173 184t-84 255t-22.5 282.5zM299 782q0 -119 13.5 -241.5t59.5 -222t135 -163
t238 -63.5q145 0 231.5 64.5t131.5 164t57.5 222.5t12.5 239q0 121 -12.5 242t-57.5 221.5t-130 162.5t-233 62q-154 0 -241.5 -61t-132.5 -159.5t-58.5 -221.5t-13.5 -246z" />
    <glyph glyph-name="one" unicode="1" horiz-adv-x="761" 
d="M121 1249v135q33 27 61 52q23 23 50.5 44t50.5 40q27 23 54.5 36t57.5 13q43 0 63.5 -24.5t20.5 -69.5v-1475h-117v1403q0 23 -18 22q-12 0 -35 -18q-20 -18 -52 -45t-62 -51q-35 -29 -74 -62z" />
    <glyph glyph-name="two" unicode="2" horiz-adv-x="1216" 
d="M171 138.5q1 60.5 8 112.5t20.5 98t38.5 95q47 102 145 187.5t260 197.5q51 35 102.5 74t91.5 84t65.5 99.5t25.5 121.5q0 72 -25.5 122t-67.5 81t-96.5 45t-109.5 14q-176 0 -251 -82.5t-83 -238.5h-123q4 197 119 312.5t340 115.5q82 0 157.5 -19.5t135 -64.5
t93.5 -114.5t34 -168.5q0 -59 -16.5 -114.5t-55.5 -110.5t-103.5 -114.5t-160.5 -125.5q-55 -37 -110.5 -76.5t-103.5 -81.5t-87 -89t-66 -101q-25 -47 -38 -107.5t-13 -135.5v-43h762v-111h-887q-2 78 -1 138.5z" />
    <glyph glyph-name="three" unicode="3" horiz-adv-x="1284" 
d="M88 387l117 33q43 -180 139 -254t254 -74q78 0 146.5 25.5t118.5 74t78 118t28 155.5q0 84 -32 149.5t-87 109.5t-132 66.5t-163 22.5h-78v117h64q147 0 230 82t83 202q0 119 -77 183.5t-189 64.5q-123 0 -190.5 -59.5t-104.5 -167.5l-111 41q98 295 410 295
q82 0 151.5 -24.5t120.5 -69.5t81 -111t30 -149q0 -104 -49 -189.5t-146 -138.5q147 -43 230.5 -151.5t83.5 -274.5q0 -113 -40 -203t-108.5 -150.5t-160 -94t-189.5 -33.5q-199 0 -329 93t-179 312z" />
    <glyph glyph-name="four" unicode="4" horiz-adv-x="1294" 
d="M80 469v100l641 901q37 51 78 79t92 28q57 0 96 -34t39 -124v-1419h-119v469h-827zM221 575h686v861q0 33 -26 32q-12 0 -25.5 -7t-30.5 -31z" />
    <glyph glyph-name="five" unicode="5" horiz-adv-x="1290" 
d="M117 252q25 18 49 33.5t49 33.5q27 -43 60.5 -83.5t82 -73.5t109.5 -53.5t141 -20.5q92 0 168 31t128 88t81 134t29 167q0 186 -109.5 290.5t-304.5 104.5q-98 0 -192.5 -19.5t-169.5 -62.5v584q0 59 36.5 105t116.5 46h647v-106h-614q-47 0 -59.5 -19.5t-12.5 -58.5
v-393q51 16 115.5 26.5t140.5 10.5q119 0 217.5 -34t167 -97.5t106.5 -157.5t38 -217q0 -111 -37 -206t-104.5 -166.5t-167 -112.5t-220.5 -41q-186 0 -303.5 75.5t-187.5 192.5z" />
    <glyph glyph-name="six" unicode="6" horiz-adv-x="1368" 
d="M182 500q0 98 21.5 190t53.5 175t68.5 152.5t67.5 123.5q20 37 50 85t68 103t80 113.5t85 113.5h143q-82 -100 -155.5 -201.5t-133.5 -199.5q-78 -129 -133 -246q66 51 149 78t167 27q117 0 211 -38t159.5 -105.5t100.5 -162t35 -206.5q0 -113 -39 -209t-109 -167
t-166 -111t-209 -40t-207 37t-162.5 105.5t-106.5 166t-38 216.5zM303 496q0 -96 28.5 -172t82 -129.5t127 -82t161.5 -28.5t161 29.5t125 84t81 131.5t29 167q0 190 -104.5 300.5t-282.5 110.5q-94 0 -169 -29.5t-128.5 -83t-82 -130t-28.5 -168.5z" />
    <glyph glyph-name="seven" unicode="7" horiz-adv-x="1089" 
d="M43 1448v106h809q72 0 103.5 -31.5t31.5 -82.5q0 -53 -39 -140q-31 -68 -72.5 -168t-90 -212.5t-98.5 -228.5t-94 -219t-79 -181t-49 -115q-25 -53 -42 -100t-24 -76h-127q4 29 25.5 84t50.5 125q20 49 65.5 152.5t100.5 230.5t113.5 261t107.5 247.5t83 189.5t38 88
q8 23 8 35q0 35 -43 35h-778z" />
    <glyph glyph-name="eight" unicode="8" horiz-adv-x="1347" 
d="M156 461q0 152 79.5 261t215.5 173q-98 51 -147.5 131t-49.5 184q0 80 26.5 147.5t79 118t129 79t177.5 28.5q100 0 176 -27.5t129 -75.5t79.5 -115t26.5 -144q0 -113 -51 -189t-139 -129q141 -63 224 -174t83 -268q0 -111 -40 -201t-109.5 -152.5t-165 -98.5t-205.5 -36
q-113 0 -208 35t-165 98.5t-107.5 153.5t-37.5 201zM276 455q0 -84 29 -153t82 -118t126 -76.5t161 -27.5t160.5 27.5t126 76.5t83 120t29.5 151q0 82 -29.5 151.5t-83 118.5t-126 76.5t-160.5 27.5q-86 0 -159 -27.5t-126 -77.5t-83 -118.5t-30 -150.5zM375 1219
q0 -129 77.5 -203t213.5 -74q133 0 211.5 74t78.5 203t-78.5 197.5t-211.5 68.5q-137 0 -214 -70.5t-77 -195.5z" />
    <glyph glyph-name="nine" unicode="9" horiz-adv-x="1351" 
d="M158 1073q0 111 40 204t109.5 159.5t161.5 104.5t201 38q106 0 199.5 -34t161 -99.5t105.5 -160.5t38 -216q0 -100 -19.5 -189t-51.5 -171t-74 -158t-87 -145q-23 -35 -54.5 -82.5t-69.5 -101.5t-81 -111.5t-84 -110.5h-147q70 82 138.5 170t129 176t113.5 174t90 164
q-63 -55 -150.5 -80.5t-169.5 -25.5q-115 0 -208 37.5t-157.5 103t-99 157t-34.5 197.5zM274 1083q0 -188 102.5 -293.5t280.5 -105.5q188 0 294 97.5t106 291.5q0 182 -104.5 292t-282.5 110q-90 0 -163 -30t-125 -82t-80 -124t-28 -156z" />
    <glyph glyph-name="colon" unicode=":" horiz-adv-x="434" 
d="M131 78q0 88 88 88t88 -88q0 -94 -88 -94t-88 94zM131 764q0 88 88 88t88 -88q0 -94 -88 -94t-88 94z" />
    <glyph glyph-name="semicolon" unicode=";" horiz-adv-x="446" 
d="M135 764q0 88 90 88q88 0 88 -88q0 -94 -88 -94q-90 0 -90 94zM137 80q0 49 26.5 71.5t63.5 22.5q51 0 74 -30.5t23 -80.5q0 -37 -13.5 -78.5t-34 -84.5t-44 -84t-48.5 -74l-45 12q31 76 52.5 127t27.5 113q-45 8 -63.5 31.5t-18.5 54.5z" />
    <glyph glyph-name="less" unicode="&#x3c;" horiz-adv-x="1042" 
d="M88 743q0 49 55 82l826 480v-117l-758 -443l758 -442v-119l-826 480q-55 32 -55 79z" />
    <glyph glyph-name="equal" unicode="=" horiz-adv-x="1406" 
d="M158 514v100h1091v-100h-1091zM158 891v100h1091v-100h-1091z" />
    <glyph glyph-name="greater" unicode="&#x3e;" horiz-adv-x="1042" 
d="M76 186v117l755 442l-755 443v119l825 -482q59 -39 60 -80q0 -27 -14.5 -45t-45.5 -36z" />
    <glyph glyph-name="question" unicode="?" horiz-adv-x="1007" 
d="M98 1358q31 63 77 105t102.5 66.5t119 35t121.5 10.5q193 0 291 -88t98 -242q0 -88 -43 -166t-119 -161q-37 -41 -73.5 -83t-65 -91.5t-47 -105.5t-18.5 -128v-129h-119v125q0 84 20.5 150.5t53 120.5t74.5 103.5t87 98.5q53 61 91 122.5t38 145.5q0 100 -63.5 159.5
t-208.5 59.5q-106 0 -186 -33.5t-127 -121.5q-25 12 -52.5 24.5t-50.5 22.5zM391 80q0 43 24.5 66.5t69.5 23.5q90 0 90 -90q0 -92 -90 -92q-94 0 -94 92z" />
    <glyph glyph-name="at" unicode="@" horiz-adv-x="1849" 
d="M197 608q0 170 59 312.5t165.5 247t252 163t315.5 58.5q129 0 245 -40t201 -116t135 -185.5t50 -248.5q0 -141 -54.5 -268.5t-166.5 -196.5q-68 -41 -146 -41q-45 0 -86 17.5t-65 58.5q-57 -37 -127 -60.5t-137 -23.5q-152 0 -232 93t-80 236q0 94 33 177t92.5 146.5
t140 101.5t175.5 38q92 0 166.5 -32.5t138.5 -104.5q-12 -78 -30.5 -153.5t-35.5 -153.5q-10 -43 -21 -87t-11 -85q0 -82 81 -82q74 0 125.5 41t84 103.5t47 137t14.5 138.5q0 117 -41 210t-113 158.5t-170 99t-211 33.5q-154 0 -281.5 -52t-221 -143t-146.5 -219t-53 -278
q0 -137 47 -246.5t129 -184.5t195.5 -114.5t246.5 -39.5q180 0 341 50t298 177l60 -66q-152 -141 -328 -195.5t-377 -54.5q-154 0 -281.5 46.5t-222 133.5t-147.5 211.5t-53 282.5zM625 618q0 -111 55 -179t170 -68q55 0 114.5 22.5t104.5 57.5l29 131q14 66 30 133
q10 49 20.5 96t20.5 98q-41 43 -91 63.5t-111 20.5q-76 0 -138.5 -31.5t-108.5 -84t-70.5 -120t-24.5 -139.5z" />
    <glyph glyph-name="A" unicode="A" horiz-adv-x="1400" 
d="M63 0q43 127 87.5 256t85 253t80.5 239.5t73 218.5q80 238 154 454q18 59 55 97t102 38q72 0 106 -37.5t54 -97.5l477 -1421h-129l-211 641h-591l-213 -641h-130zM438 752h523l-211 632q-8 25 -18.5 44.5t-29.5 19.5q-16 0 -27 -19.5t-20 -44.5z" />
    <glyph glyph-name="B" unicode="B" horiz-adv-x="1372" 
d="M229 0v1255q0 125 70 203t182 94q18 4 49 5.5t58 1.5h80q25 0 59.5 -2.5t56.5 -6.5q147 -20 239.5 -118.5t92.5 -251.5q0 -102 -51 -197.5t-156 -146.5q139 -45 219 -149.5t80 -256.5q0 -88 -27.5 -159.5t-75.5 -125t-114.5 -87t-144.5 -48.5q-27 -4 -71 -7t-81 -3h-465z
M348 106h363q190 0 281 89.5t91 234.5q0 158 -105.5 247t-297.5 89h-332v-660zM348 874h285q74 0 110 7q109 20 180.5 98t71.5 195q0 121 -65.5 190.5t-177.5 81.5q-51 8 -99 8h-92q-16 0 -34.5 -2t-32.5 -6q-63 -14 -104.5 -60.5t-41.5 -130.5v-381z" />
    <glyph glyph-name="C" unicode="C" horiz-adv-x="1515" 
d="M150 776q0 170 51 315.5t146 251t230.5 166t303.5 60.5q152 0 287 -55.5t247 -178.5l-80 -88q-197 211 -458 211q-139 0 -251 -52t-190 -144.5t-119 -216t-41 -267.5q0 -143 42 -268t121 -217t191.5 -143.5t254.5 -51.5q129 0 247.5 44t225.5 151l69 -96
q-117 -113 -257 -163t-285 -50q-170 0 -306.5 59t-231.5 163.5t-146 251t-51 318.5z" />
    <glyph glyph-name="D" unicode="D" horiz-adv-x="1556" 
d="M229 0v1260q0 113 60.5 186.5t159.5 99.5q29 8 69.5 13.5t71.5 5.5h90q182 0 320.5 -64.5t231.5 -174t139 -252t46 -300.5t-44 -298t-132 -246.5t-220 -168t-304 -61.5h-488zM350 109h340q31 0 63.5 1t51.5 3q113 14 204 66t153.5 138t97 202t34.5 255q0 129 -36.5 252
t-111.5 217t-190.5 152.5t-273.5 58.5h-102q-98 0 -164 -47t-66 -156v-187q0 -81 1 -155.5t1 -148.5v-168q0 -92 -1 -207.5t-1 -275.5z" />
    <glyph glyph-name="E" unicode="E" horiz-adv-x="1220" 
d="M229 0v1221q0 25 2 53.5t9 44.5q16 92 84.5 157.5t177.5 75.5q12 2 45 3t63 1h465v-110h-504q-16 0 -41.5 -2t-42.5 -6q-57 -16 -93 -54t-42 -118q-2 -18 -2 -35v-23v-344h645v-112h-645v-643h766v-109h-887z" />
    <glyph glyph-name="F" unicode="F" horiz-adv-x="1167" 
d="M229 0v1221q0 47 9 86q16 100 79.5 162.5t176.5 80.5q23 4 55.5 5t52.5 1h459v-112h-486h-27q-15 0 -30 -2q-80 -8 -124 -58.5t-44 -144.5v-371h635v-112h-635v-756h-121z" />
    <glyph glyph-name="G" unicode="G" horiz-adv-x="1626" 
d="M139 764q0 172 53.5 320.5t149.5 255t233.5 169t303.5 62.5q160 0 295 -49t256 -156l-76 -94q-102 92 -221 140t-252 48q-145 0 -261 -53t-196 -146.5t-122 -220.5t-42 -274q0 -150 41 -274.5t121 -214t198.5 -140.5t274.5 -51q201 0 346 70q37 16 57.5 41.5t20.5 85.5
v360h-361v119h484v-498q0 -78 -46 -133t-153 -96q-74 -29 -169 -43.5t-179 -14.5q-184 0 -326.5 60.5t-236.5 164t-143.5 247t-49.5 315.5z" />
    <glyph glyph-name="H" unicode="H" horiz-adv-x="1581" 
d="M231 0v1556h123v-682h873v682h123v-1556h-123v764h-873v-764h-123z" />
    <glyph glyph-name="I" unicode="I" horiz-adv-x="608" 
d="M244 0v1556h121v-1556h-121z" />
    <glyph glyph-name="J" unicode="J" horiz-adv-x="1105" 
d="M160 49v125q78 -41 150.5 -58.5t144.5 -17.5q137 0 209.5 72t85.5 186q2 10 3 44t1 69v1087h123v-1116q0 -37 -1.5 -62.5t-3.5 -41.5q-20 -160 -130.5 -257t-292.5 -97q-70 0 -148 15t-141 52z" />
    <glyph glyph-name="K" unicode="K" horiz-adv-x="1372" 
d="M229 0v1556h121v-690h158q74 0 133 11.5t108.5 38t88.5 72.5t69 120q4 10 15.5 35.5t26 60.5t29.5 74t34 78q39 90 86 200h125q-51 -113 -90 -208q-18 -43 -36 -85t-34 -80t-28.5 -68t-18.5 -44q-33 -78 -83 -144.5t-132 -107.5q133 -209 261 -409.5t259 -409.5h-141
q-104 164 -199.5 315.5t-202.5 317.5q-25 37 -47 61.5t-49 39t-60.5 19.5t-76.5 5h-195v-758h-121z" />
    <glyph glyph-name="L" unicode="L" horiz-adv-x="1181" 
d="M229 193v1363h119v-1357q0 -39 20.5 -64.5t65.5 -25.5h672v-109h-674q-90 0 -146.5 52.5t-56.5 140.5z" />
    <glyph glyph-name="M" unicode="M" horiz-adv-x="1880" 
d="M229 0v1419q0 70 40 110t106 40q61 0 100 -35t66 -96l401 -924l397 924q25 51 64 91t108 40q66 0 103 -42t37 -112v-1415h-119v1415q0 18 -6 31.5t-23 13.5q-12 0 -24.5 -11t-24.5 -44l-455 -1038h-116l-453 1038q-12 16 -23.5 35.5t-29.5 19.5q-29 0 -29 -43v-1417h-119
z" />
    <glyph glyph-name="N" unicode="N" horiz-adv-x="1613" 
d="M229 0v1417q0 70 38 113t108 43q66 0 104.5 -38t73.5 -108q49 -100 107.5 -218.5t135 -271.5t174 -348.5t224.5 -451.5q20 -39 45 -39q29 0 29 43v1415h116v-1415q0 -70 -38.5 -110.5t-102.5 -40.5q-57 0 -95 26.5t-67 83.5q-35 68 -92 185.5t-125 253.5l-138 276
l-130 260q-59 119 -101 202t-51 103q-23 45 -37 62.5t-30 17.5q-29 0 -29 -43v-1417h-119z" />
    <glyph glyph-name="O" unicode="O" horiz-adv-x="1708" 
d="M154 776q0 164 42 310.5t129 254t219 171t314 63.5q172 0 304 -63.5t220 -171t132.5 -254t44.5 -310.5q0 -158 -45.5 -302t-132.5 -254.5t-218 -177.5t-303 -67q-178 0 -312 64.5t-221 174.5t-130 254t-43 308zM274 778q0 -139 34 -265t105.5 -220t183.5 -149.5
t263 -55.5q152 0 259.5 56.5t177 151.5t102.5 220t33 262q0 141 -35 266t-106.5 218.5t-179 147.5t-253.5 54q-152 0 -262.5 -54t-182 -148.5t-105.5 -219.5t-34 -264z" />
    <glyph glyph-name="P" unicode="P" horiz-adv-x="1273" 
d="M229 0v1255q0 123 65.5 199t176.5 96q20 4 53 5t62 1h90q25 0 60.5 -1t60.5 -5q84 -10 154.5 -47t120.5 -95t78 -136t28 -170q0 -100 -30 -180t-79 -139.5t-116.5 -99.5t-147.5 -58q-41 -12 -94.5 -15.5t-94.5 -3.5h-266v-606h-121zM350 713h262q33 0 76 2t68 6
q133 25 217 123t84 256q0 66 -20.5 124t-57.5 105t-88 77t-113 38q-16 4 -47 5t-55 1h-96q-31 0 -57.5 -2t-45.5 -6q-127 -37 -127 -180v-549z" />
    <glyph glyph-name="Q" unicode="Q" horiz-adv-x="1695" 
d="M145 774q0 172 44 318.5t133.5 254t220.5 168t307 60.5q170 0 300 -63.5t219 -171t134 -254t45 -312.5q0 -127 -27.5 -243.5t-83 -215t-137 -175.5t-188.5 -117q47 -25 89 -57t85 -60.5t88 -48t99 -19.5h129v-110h-121q-106 0 -179 38.5t-136.5 84t-132 84t-169.5 38.5
h-12q-172 0 -305 60.5t-221 169t-134.5 255t-46.5 316.5zM268 776q0 -145 35 -272t108.5 -220.5t182 -147.5t258.5 -54q145 0 252.5 55.5t179.5 149.5t106.5 220t34.5 269q0 141 -35.5 266t-107.5 219.5t-179.5 148.5t-252.5 54q-150 0 -259.5 -53t-181 -146.5
t-106.5 -218.5t-35 -270z" />
    <glyph glyph-name="R" unicode="R" horiz-adv-x="1337" 
d="M229 0v1180v40q0 32 2 56q6 96 58.5 169t161.5 101q25 6 59.5 9.5t69.5 3.5h92q35 0 71.5 -3.5t63.5 -7.5q76 -12 143.5 -46t115.5 -86t76.5 -122.5t28.5 -160.5q0 -170 -93 -274.5t-240 -145.5q113 -180 222 -357.5t222 -355.5h-143q-88 139 -175 280.5t-173 280.5
q-47 76 -87 104.5t-112 28.5h-242v-694h-121zM350 803h330q76 0 142.5 19.5t116.5 59.5t79 102.5t29 145.5q0 119 -67 198t-169 108q-25 6 -57.5 9t-63.5 3h-131q-209 0 -209 -201v-444z" />
    <glyph glyph-name="S" unicode="S" horiz-adv-x="1304" 
d="M123 225q25 18 51.5 34.5t52.5 35.5q66 -111 169.5 -152t254.5 -41q209 0 302.5 83t93.5 210q0 80 -32 136.5t-89.5 97.5t-132 70.5t-158.5 58.5q-100 35 -182 72.5t-139.5 91t-88 123t-30.5 167.5q0 76 27.5 140.5t83.5 112.5t143.5 75t209.5 27q59 0 124 -7.5
t127.5 -29t117.5 -65.5t100 -115q-25 -18 -50 -32.5t-52 -33.5q-33 53 -75 87t-91 52.5t-101 25.5t-106 7q-178 0 -256 -63.5t-78 -173.5q0 -55 14.5 -102.5t55.5 -90.5t113.5 -82t191.5 -78q100 -31 186.5 -67.5t151 -90t100 -127t35.5 -173.5q0 -82 -27.5 -158t-89 -134.5
t-164 -92t-249.5 -33.5q-80 0 -157 11t-144.5 41t-121.5 73.5t-91 109.5z" />
    <glyph glyph-name="T" unicode="T" horiz-adv-x="1173" 
d="M55 1448v108h1063v-108h-473v-1448h-119v1448h-471z" />
    <glyph glyph-name="U" unicode="U" horiz-adv-x="1552" 
d="M229 520v1036h121v-1013q0 -45 3 -94.5t9 -79.5q27 -123 132.5 -203t314.5 -80q43 0 97.5 6t107.5 15.5t100 21.5t78 27v1400h119v-1488q-104 -35 -235.5 -65t-270.5 -30q-227 0 -364.5 86t-186.5 240q-12 43 -18.5 99t-6.5 122z" />
    <glyph glyph-name="V" unicode="V" horiz-adv-x="1427" 
d="M68 1556h135l471 -1396q12 -33 24.5 -45.5t28.5 -12.5q35 0 51 58l455 1396h127l-469 -1421q-23 -70 -60.5 -108.5t-105.5 -38.5q-63 0 -103 36.5t-65 110.5z" />
    <glyph glyph-name="W" unicode="W" horiz-adv-x="2048" 
d="M86 1556h123l315 -1396q8 -31 17.5 -45.5t27.5 -14.5q29 0 47 58l347 1013h118l349 -1009q10 -35 21 -48.5t30 -13.5q16 0 25.5 11.5t15.5 44.5l319 1400h121l-320 -1400q-16 -78 -54 -122t-107 -44q-74 0 -109 43t-57 108l-293 854l-287 -850q-25 -70 -60.5 -112.5
t-109.5 -42.5q-123 0 -155 139z" />
    <glyph glyph-name="X" unicode="X" horiz-adv-x="1382" 
d="M90 0l473 727q38 57 38 93q0 34 -28 75l-430 661h144l409 -641l410 641h133l-420 -659q-30 -41 -30 -73q0 -35 34 -87l475 -737h-141l-463 717l-463 -717h-141z" />
    <glyph glyph-name="Y" unicode="Y" horiz-adv-x="1239" 
d="M47 1559h137l434 -766l439 766h137l-457 -791q-16 -27 -27.5 -46.5t-17.5 -37.5t-8 -40.5t-2 -53.5v-588h-123v588q0 31 -3 53.5t-9 40.5t-17.5 37.5t-27.5 46.5z" />
    <glyph glyph-name="Z" unicode="Z" horiz-adv-x="1296" 
d="M113 106q0 37 16 70t41 66q156 211 305.5 416.5t267.5 371.5q137 193 265 371q12 16 8 30.5t-29 14.5h-770v110h805q59 0 95 -23.5t36 -76.5q0 -31 -13.5 -63.5t-52.5 -85.5q-61 -84 -137 -188.5t-156.5 -219.5t-162.5 -227.5t-153.5 -212t-128 -178t-89.5 -119.5
q-16 -25 -10 -38t29 -13h903v-111h-934q-72 0 -103.5 30.5t-31.5 75.5z" />
    <glyph glyph-name="bracketleft" unicode="[" horiz-adv-x="546" 
d="M137 -37v1647q0 92 53.5 139t135.5 47h110v-106h-121q-41 0 -56 -24t-15 -56v-1645q0 -39 18.5 -61.5t65.5 -22.5h108v-104h-114q-84 0 -134.5 45t-50.5 141z" />
    <glyph glyph-name="backslash" unicode="\" horiz-adv-x="935" 
d="M55 1567h121l655 -1569h-122z" />
    <glyph glyph-name="bracketright" unicode="]" horiz-adv-x="573" 
d="M145 -119h109q47 0 65.5 22.5t18.5 61.5v1645q0 33 -15.5 56.5t-56.5 23.5h-121v106h123q82 0 129 -42t47 -132v-1653q0 -96 -50 -144t-134 -48h-115v104z" />
    <glyph glyph-name="asciicircum" unicode="^" horiz-adv-x="2215" 
d="M113 535q0 125 43 227t117.5 176t175 115t217.5 41q188 0 309 -82t178 -215q16 -43 29 -97q8 -43 11 -107.5t-7 -141.5h-783q2 -43 21.5 -87.5t56.5 -79t91.5 -55t125.5 -20.5q78 0 144.5 21.5t118.5 62.5l151 -176q-72 -66 -183.5 -104t-258.5 -38q-106 0 -207 32
t-177.5 100.5t-124.5 175.5t-48 252zM416 666h479q-14 98 -72.5 152t-158.5 54q-98 0 -163 -57t-85 -149zM1444 0v1057h287v-111h4q51 74 126.5 104.5t157.5 30.5q31 0 71 -7t69 -19v-256q-31 12 -76 20t-80 8q-84 0 -136 -27.5t-84 -73.5t-42 -104.5t-10 -117.5v-504h-287z
" />
    <glyph glyph-name="underscore" unicode="_" horiz-adv-x="1198" 
d="M150 -358h901v-68h-901v68z" />
    <glyph glyph-name="grave" unicode="`" horiz-adv-x="1951" 
d="M252 774v707q0 39 23.5 59.5t58.5 20.5q37 0 58.5 -18.5t31.5 -45.5l57 -129q33 -74 64 -143q35 -80 71 -166q39 86 74 166q31 70 62.5 143.5t56.5 128.5q12 27 32.5 45.5t59.5 18.5q35 0 58.5 -20.5t23.5 -59.5v-707h-82v696q0 10 -8 11q-4 0 -10 -15q-27 -59 -66 -145
t-76 -168q-43 -96 -88 -197h-75q-45 96 -86 193q-39 78 -77 168t-67 153q-6 10 -10 11q-6 0 -6 -11v-696h-80zM1126 1163q0 86 29 161t81 128t125 85t161 32q186 0 303 -131l-60 -56q-49 51 -109.5 80t-131.5 29q-70 0 -129.5 -24.5t-100.5 -68.5t-62.5 -103.5t-21.5 -129.5
t21.5 -130t62.5 -104t98.5 -69.5t131.5 -25.5q158 0 264 104q10 -18 21.5 -32.5t21.5 -30.5q-123 -115 -307 -115q-90 0 -163 29.5t-125 84t-81 128t-29 159.5z" />
    <glyph glyph-name="a" unicode="a" horiz-adv-x="1355" 
d="M141 516q0 113 36 214t103.5 178t166 122t225.5 45t220 -41t150 -110v129h111v-1053h-100q-4 51 -45 51q-10 0 -25.5 -4t-32.5 -10q-68 -25 -135 -39t-145 -14q-121 0 -218.5 37.5t-166 107.5t-106.5 168t-38 219zM258 516q0 -96 27.5 -174t81 -136.5t132.5 -90
t183 -31.5q98 0 194.5 29.5t161.5 68.5v428q0 14 -2 36t-4 34q-6 70 -36.5 125t-79 93t-111 57.5t-133.5 19.5q-106 0 -183 -36t-128.5 -98.5t-77 -146.5t-25.5 -178z" />
    <glyph glyph-name="b" unicode="b" horiz-adv-x="1349" 
d="M203 0v1567h110v-707q74 111 181.5 161t226.5 50q115 0 206 -39t154.5 -109.5t98 -168t34.5 -213.5q0 -115 -32.5 -214.5t-98 -175t-163 -119.5t-226.5 -44q-43 0 -77.5 3t-65.5 9t-60.5 16.5t-66.5 20.5q-14 6 -33.5 11t-34.5 5q-47 0 -47 -53h-106zM315 193
q94 -47 184.5 -76t192.5 -29q104 0 180 36t126.5 96.5t75 143t24.5 177.5q0 86 -23.5 162.5t-70 135t-119 93.5t-170.5 35q-86 0 -160 -31t-126 -88t-83 -137t-31 -176v-342z" />
    <glyph glyph-name="c" unicode="c" horiz-adv-x="1179" 
d="M143 532q0 115 39 215.5t108.5 174t166 115.5t213.5 42q147 0 242.5 -44t177.5 -128l-82 -73q-68 72 -149 108.5t-191 36.5q-92 0 -168 -35t-128.5 -94t-82 -138t-29.5 -167q0 -213 114.5 -336t309.5 -123q98 0 188.5 38t167.5 101l62 -82q-182 -156 -432 -155
q-123 0 -221.5 40t-166 113.5t-103.5 172.5t-36 218z" />
    <glyph glyph-name="d" unicode="d" horiz-adv-x="1359" 
d="M141 528q0 115 38 214.5t106.5 173t165 115.5t215.5 42q242 0 381 -160v656h110v-1569h-110v12q0 31 -10.5 40t-28.5 9q-10 0 -23.5 -4t-28.5 -8q-70 -25 -144.5 -43t-154.5 -18q-127 0 -223 40t-160.5 112.5t-98.5 171.5t-34 216zM260 530q0 -90 24.5 -172t75 -142
t126 -96t180.5 -36q115 0 209 37t165 78v430q0 74 -27.5 137t-76.5 109.5t-116.5 72t-147.5 25.5q-98 0 -175 -34t-129.5 -94.5t-80 -140.5t-27.5 -174z" />
    <glyph glyph-name="e" unicode="e" horiz-adv-x="1273" 
d="M143 532q0 121 38 220.5t105.5 171t161 112.5t203.5 41q104 0 190.5 -34.5t148 -97t98 -148.5t42.5 -193q2 -16 4.5 -47t2.5 -39h-877q6 -197 115.5 -315.5t310.5 -118.5q106 0 195.5 31.5t167.5 87.5l51 -86q-94 -63 -194.5 -98t-229.5 -35q-125 0 -224.5 39.5
t-167 113.5t-104.5 174t-37 221zM264 614h750q-20 166 -110.5 265.5t-252.5 99.5q-80 0 -146.5 -25.5t-116.5 -75t-82 -116t-42 -148.5z" />
    <glyph glyph-name="f" unicode="f" horiz-adv-x="817" 
d="M211 0v1155q0 84 21.5 155.5t65.5 124t109.5 81t153.5 28.5q59 0 126 -16.5t132 -57.5l-39 -94q-70 41 -121 53.5t-94 12.5q-129 0 -184 -80t-55 -205v-145h395v-107h-395v-905h-115z" />
    <glyph glyph-name="g" unicode="g" 
d="M141 530q0 111 36 210.5t104.5 174t168 117.5t226.5 43q180 0 292.5 -75.5t155.5 -200.5q18 -63 19 -154v-653v-19q0 -238 -128 -376t-374 -138q-90 0 -176 16.5t-158 51.5q6 25 12.5 50.5t12.5 47.5q68 -31 145.5 -48t161.5 -17q201 0 296 113.5t95 299.5v27
q0 31 -12 43t-29 12q-18 0 -45 -10q-78 -33 -148.5 -45t-138.5 -12q-129 0 -225 40t-161.5 113.5t-97.5 172.5t-32 216zM260 530q0 -90 22.5 -170.5t71.5 -141t126 -96.5t186 -36t195.5 29.5t166.5 74.5v449v32q0 15 -2 27q-18 133 -116.5 205t-239.5 72q-94 0 -171 -34
t-130.5 -94.5t-81 -141.5t-27.5 -175z" />
    <glyph glyph-name="h" unicode="h" horiz-adv-x="1263" 
d="M203 0v1567h119v-664q61 82 151 126t209 44q203 0 308.5 -113.5t105.5 -318.5v-641h-121v635q0 150 -69.5 242t-231.5 92q-76 0 -140.5 -27t-111.5 -74t-73.5 -115.5t-26.5 -150.5v-602h-119z" />
    <glyph glyph-name="i" unicode="i" horiz-adv-x="567" 
d="M197 1372q0 88 88 88q90 0 90 -88q0 -94 -90 -94q-88 0 -88 94zM227 0v1053h115v-1053h-115z" />
    <glyph glyph-name="j" unicode="j" horiz-adv-x="565" 
d="M-121 -520l8 108q38 -4 72 -3q75 0 125 19q72 28 105.5 74t41 104t7.5 109v1162h114v-1172q0 -86 -22.5 -164.5t-75.5 -135t-144 -85.5q-64 -20 -152 -20q-37 0 -79 4zM203 1372q0 88 90 88t90 -88q0 -94 -90 -94t-90 94z" />
    <glyph glyph-name="k" unicode="k" horiz-adv-x="1183" 
d="M203 0v1565h119v-944h110q72 0 128 6t103.5 29.5t87.5 72.5t78 137l84 187h127l-116 -252q-23 -55 -67 -120t-116 -108q92 -143 183.5 -286.5t183.5 -286.5h-141q-63 102 -129 202.5t-129 205.5q-20 33 -38 55t-38.5 33.5t-45 17.5t-57.5 6h-208v-520h-119z" />
    <glyph glyph-name="l" unicode="l" horiz-adv-x="520" 
d="M203 0v1565h119v-1565h-119z" />
    <glyph glyph-name="m" unicode="m" horiz-adv-x="1927" 
d="M203 0v934q92 57 196.5 97t231.5 40q139 0 225 -41t131 -112q57 66 154.5 109.5t222.5 43.5q176 0 284.5 -89t108.5 -292v-690h-119v653q0 152 -61 234t-223 82q-70 0 -128.5 -18.5t-100.5 -51.5t-64.5 -76t-22.5 -92v-731h-118v694q0 139 -74 206t-225 67
q-86 0 -166 -27t-136 -61v-879h-116z" />
    <glyph glyph-name="n" unicode="n" horiz-adv-x="1277" 
d="M203 0v934q90 61 207.5 101t234.5 40q219 0 339 -98t120 -311v-666h-117v647q0 326 -346 326q-45 0 -92 -8.5t-90 -21.5t-80 -30.5t-64 -31.5v-881h-112z" />
    <glyph glyph-name="o" unicode="o" 
d="M137 530q0 115 39 215.5t109.5 175t168 117.5t214.5 43q119 0 218 -42t169.5 -115.5t109.5 -175t39 -218.5q0 -119 -40 -219t-112.5 -174t-171 -115.5t-212.5 -41.5q-117 0 -214.5 41.5t-167 117.5t-109.5 175t-40 216zM254 532q0 -92 28.5 -175t82 -145t130 -97
t173.5 -35q94 0 169.5 33.5t131 95t86 144.5t30.5 179q0 92 -30.5 173t-86 142.5t-133 98.5t-167.5 37q-94 0 -171 -36t-131.5 -96t-83 -142.5t-28.5 -176.5z" />
    <glyph glyph-name="p" unicode="p" horiz-adv-x="1318" 
d="M174 -451v1049q0 100 34 188t96.5 150.5t154.5 98.5t211 36q115 0 209 -36t162.5 -104.5t106.5 -167.5t38 -226q0 -104 -31 -205t-97.5 -176.5t-169 -121.5t-241.5 -46q-82 0 -142.5 12t-137.5 37q-27 10 -39 10q-39 0 -39 -45v-137v-316h-115zM289 186q94 -51 180 -74.5
t186 -23.5q106 0 183 36t127.5 95.5t74 141t23.5 174.5q0 92 -24.5 169.5t-75 135t-124 91.5t-171.5 34q-123 0 -208 -48.5t-128 -138.5q-23 -39 -33 -90t-10 -106v-396z" />
    <glyph glyph-name="q" unicode="q" 
d="M143 524q0 115 39 215.5t109.5 175t169 116.5t219.5 42q100 0 188 -27.5t150.5 -83t98.5 -136.5t36 -189v-922q0 -74 72 -73h49v-97h-60q-176 0 -176 179v274q0 37 -22 45q-8 3 -19 3q-19 0 -45 -9q-63 -20 -136 -36.5t-154 -16.5q-121 0 -217.5 38.5t-163 109.5
t-102.5 171t-36 221zM260 530q0 -90 23.5 -170.5t74 -140t127 -95.5t183.5 -36q104 0 189 24.5t177 63.5v453q0 166 -94 253t-264 87q-96 0 -174 -34t-130.5 -94.5t-82 -140.5t-29.5 -170z" />
    <glyph glyph-name="r" unicode="r" horiz-adv-x="907" 
d="M201 0v829q0 76 48 130.5t130 82.5q51 16 104.5 25.5t104.5 9.5q102 0 184 -25.5t133 -88.5q-23 -18 -44 -36l-42 -36q-41 47 -103.5 64.5t-125.5 17.5q-45 0 -87 -6t-87 -25q-61 -25 -79 -62.5t-18 -95.5v-784h-118z" />
    <glyph glyph-name="s" unicode="s" horiz-adv-x="1054" 
d="M104 156l93 59q45 -78 121.5 -108.5t199.5 -30.5q170 0 239.5 47t69.5 127q0 49 -22.5 85t-60 65.5t-91 49t-116.5 37.5q-188 53 -287.5 124t-99.5 200t97 196.5t277 67.5q49 0 102.5 -4t103.5 -21.5t96 -49t77 -87.5l-94 -51q-43 72 -123 94.5t-168 22.5q-41 0 -85 -6
t-82 -23.5t-61.5 -47.5t-23.5 -79q0 -37 11.5 -66.5t45 -57t92 -53t150.5 -50.5q76 -20 143.5 -47t119 -66t81 -93t29.5 -126q0 -61 -18.5 -112.5t-67.5 -90t-132 -61.5t-210 -23q-66 0 -127 10.5t-114.5 31t-95.5 54.5t-69 83z" />
    <glyph glyph-name="t" unicode="t" horiz-adv-x="806" 
d="M201 313v1026h118v-286h361v-111h-361v-610q0 -115 51.5 -177.5t170.5 -62.5q59 0 114.5 13.5t102.5 29.5v-102q-49 -23 -113.5 -32t-122.5 -9q-152 0 -236.5 83.5t-84.5 237.5z" />
    <glyph glyph-name="u" unicode="u" horiz-adv-x="1277" 
d="M188 389v662h113v-654q0 -70 19.5 -127t64.5 -98t116.5 -64.5t174.5 -23.5q72 0 149.5 11t130.5 28v928h115v-1006q-88 -29 -188.5 -47t-212.5 -18q-236 0 -359 103t-123 306z" />
    <glyph glyph-name="v" unicode="v" horiz-adv-x="1181" 
d="M74 1053h129l327 -858q18 -47 34 -75t40 -28q29 0 42 29t30 74l315 858h123l-332 -889q-27 -72 -66.5 -126t-113.5 -54q-76 0 -114.5 52t-67.5 130z" />
    <glyph glyph-name="w" unicode="w" horiz-adv-x="1802" 
d="M84 1053h121l280 -906q8 -27 16.5 -42t28.5 -15q18 0 28.5 14.5t21.5 45.5l274 903h111l260 -899q10 -27 19 -45.5t32 -18.5t32 19.5t17 44.5l277 899h116l-288 -932q-23 -63 -60 -100t-100 -37q-61 0 -99 38.5t-59 110.5l-205 719l-217 -719q-18 -61 -55 -105t-105 -44
q-63 0 -101 37.5t-58 105.5z" />
    <glyph glyph-name="x" unicode="x" horiz-adv-x="1232" 
d="M119 0l348 473q20 27 29.5 48.5t10.5 39t-7 36.5t-27 44l-309 412h139l305 -410l305 410h136l-308 -412q-18 -25 -25 -43t-6 -35.5t10 -39t30 -50.5l348 -473h-140l-352 477l-350 -477h-137z" />
    <glyph glyph-name="y" unicode="y" horiz-adv-x="1345" 
d="M199 418v635h116v-629q0 -68 18.5 -130.5t59.5 -108.5t106.5 -73.5t164.5 -27.5q86 0 176 21.5t164 58.5v889h114v-1037q0 -127 -30.5 -228t-92 -174t-154.5 -112t-216 -39q-92 0 -166 15.5t-146 52.5l27 100q68 -31 132.5 -49t148.5 -18q98 0 169.5 32.5t119.5 90
t71 136.5t23 173v57q-80 -37 -167 -54t-180 -17q-215 0 -336.5 110.5t-121.5 325.5z" />
    <glyph glyph-name="z" unicode="z" horiz-adv-x="1050" 
d="M139 86q0 37 19.5 70.5t46.5 66.5q14 16 55 70.5t97.5 126.5t120 152.5t119.5 152.5t97 124t51 66q25 31 -18 31h-526v107h567q55 0 87 -20.5t32 -65.5q0 -27 -12.5 -54.5t-45.5 -72.5q-57 -72 -137 -175.5t-159.5 -205t-146.5 -188.5t-101 -130q-12 -18 -13 -26
q0 -8 11 -9h628v-106h-667q-45 0 -75 22.5t-30 63.5z" />
    <glyph glyph-name="braceleft" unicode="{" horiz-adv-x="798" 
d="M123 731v100q106 -4 172.5 57.5t66.5 164.5v420q0 76 27 139t73 107t111.5 66.5t143.5 20.5v-102q-113 4 -176.5 -52.5t-63.5 -168.5v-428q0 -88 -40 -161t-115 -112q76 -39 115.5 -110.5t39.5 -163.5v-424q0 -113 63.5 -169t176.5 -54v-107q-76 0 -141.5 24.5
t-112.5 68.5t-74 106.5t-27 136.5v418q0 102 -66.5 164.5t-172.5 58.5z" />
    <glyph glyph-name="bar" unicode="|" horiz-adv-x="509" 
d="M199 -127v1907h110v-1907h-110z" />
    <glyph glyph-name="braceright" unicode="}" horiz-adv-x="849" 
d="M137 -137q113 0 176.5 54t63.5 169v432q0 193 149 264q-150 84 -149 267v434q0 113 -64.5 169t-175.5 54v102q78 4 142.5 -18.5t111.5 -64.5t74 -104t27 -138v-428q0 -102 60 -164t177 -62v-94q-238 0 -237 -221v-432q0 -78 -27 -138.5t-75 -103.5t-112.5 -65.5
t-140.5 -20.5v109z" />
    <glyph glyph-name="asciitilde" unicode="~" horiz-adv-x="1951" 
d="M250 774v703q0 39 22.5 61.5t59.5 22.5q35 0 57.5 -18.5t32.5 -45.5l98 -217q49 -109 96 -217q49 109 95.5 217.5t95.5 216.5q12 27 32.5 45.5t57.5 18.5t59.5 -21.5t22.5 -58.5v-707h-78v694q0 12 -8 13q-4 0 -7 -6l-5 -11l-230 -512h-71q-57 129 -114.5 257t-115.5 257
q-8 14 -12 15q-6 0 -6 -13v-694h-82zM1182 877v524q0 70 47 114t125 44h112q86 0 154 -32t113 -86.5t68.5 -127t23.5 -152.5q0 -78 -22.5 -148.5t-66.5 -123.5t-110.5 -84t-155.5 -31h-178q-110 1 -110 103zM1264 877q0 -29 30 -29h172q72 0 122 24.5t84 68.5t50.5 100.5
t16.5 119.5q0 66 -16.5 125.5t-51.5 103.5t-87 70.5t-120 26.5h-104q-41 0 -68.5 -22.5t-27.5 -59.5v-528z" />
    <glyph glyph-name="uni00A0" unicode="&#xa0;" horiz-adv-x="778" 
 />
    <glyph glyph-name="exclamdown" unicode="&#xa1;" horiz-adv-x="491" 
d="M156 1405q0 96 90 96q47 0 70.5 -26.5t23.5 -69.5q0 -45 -25.5 -69.5t-68.5 -24.5q-90 0 -90 94zM190 -98v1216h113v-1216h-113z" />
    <glyph glyph-name="cent" unicode="&#xa2;" horiz-adv-x="1118" 
d="M102 530q0 106 32 199.5t90.5 164.5t141.5 116t185 59v127h108v-123q127 -4 217.5 -51t167.5 -125l-79 -74q-59 63 -134 101.5t-172 44.5v-879q188 12 338 137l60 -82q-84 -70 -184.5 -112.5t-213.5 -48.5v-142h-108v148q-106 10 -190.5 55t-141.5 115.5t-87 164.5
t-30 205zM219 543q0 -190 88 -306t244 -139v867q-78 -14 -138.5 -51t-103.5 -93.5t-66.5 -129t-23.5 -148.5z" />
    <glyph glyph-name="sterling" unicode="&#xa3;" horiz-adv-x="1034" 
d="M182 0v219q0 100 1 220t1 241v81q0 60 -1 125.5t-1 121.5v67q0 199 110.5 316.5t309.5 117.5q143 0 240.5 -68.5t148.5 -195.5q-25 -12 -49 -26l-49 -29q-37 104 -107.5 158.5t-183.5 54.5q-139 0 -221 -87t-82 -229v-10q0 -27 1 -69.5t1 -83.5v-76v-45h410v-105h-412
v-594h725v-104h-842z" />
    <glyph glyph-name="currency" unicode="&#xa4;" horiz-adv-x="919" 
d="M150 1012l49 47l102 -98q70 55 168 55q92 0 160 -51l88 90l49 -51l-90 -91q51 -68 51 -159q0 -100 -55 -166l100 -101l-49 -51l-102 105q-66 -47 -152 -47q-90 0 -162 51l-98 -103l-51 54l100 102q-27 31 -38 72t-11 84q0 88 45 155zM287 756q0 -41 10 -77t37 -61
q45 -53 135 -53q88 0 133 53q27 25 36 61t9 77q0 43 -10 76.5t-37 60.5q-25 29 -57.5 40t-73.5 11q-45 0 -78 -11t-57 -40q-25 -25 -36 -59.5t-11 -77.5z" />
    <glyph glyph-name="yen" unicode="&#xa5;" horiz-adv-x="1265" 
d="M109 1552h124l365 -714q16 -35 35 -35q18 0 37 35l368 714h119l-379 -751h330v-107h-414v-264h414v-111h-414v-319h-121v319h-413v111h413v264h-413v107h329z" />
    <glyph glyph-name="brokenbar" unicode="&#xa6;" horiz-adv-x="376" 
d="M150 -158v660h79v-660h-79zM150 717v667h79v-667h-79z" />
    <glyph glyph-name="section" unicode="&#xa7;" horiz-adv-x="1017" 
d="M109 6q25 14 47 28.5t47 26.5q49 -63 124.5 -84.5t172.5 -21.5q59 0 110 8q82 10 128 51t46 113q0 35 -16 62.5t-43 51t-60.5 42t-66.5 36.5q-25 10 -50.5 22.5t-51.5 23.5q-117 49 -203 104q-66 45 -101.5 105.5t-35.5 140.5q0 55 22.5 101t63.5 79q-45 39 -68.5 82
t-23.5 104q0 68 25.5 115t72.5 77t109.5 44t136.5 14h20h36q19 0 38 -2q76 -4 150.5 -31.5t121.5 -105.5q-25 -12 -45 -25.5t-45 -27.5q-41 57 -106.5 76.5t-139.5 19.5h-49q-37 0 -76 -7t-69.5 -23.5t-51 -45.5t-20.5 -74q0 -37 21.5 -67.5t54.5 -54.5q45 -31 101.5 -63
t133.5 -62q23 -10 46.5 -20.5t48.5 -20.5q90 -45 151.5 -112t61.5 -171q0 -111 -82 -188q37 -31 60.5 -70t29.5 -88q2 -10 3 -22.5t1 -26.5q0 -18 -2 -31q-10 -113 -105.5 -172t-267.5 -59q-33 0 -60.5 1t-56.5 3q-88 6 -165.5 40.5t-122.5 104.5zM266 713q0 -96 99 -160
q31 -20 67.5 -37.5t83.5 -38.5q47 -23 98.5 -45t96.5 -47q55 59 55 123q0 78 -59.5 127t-147.5 86q-61 29 -117.5 55.5t-111.5 57.5q-64 -37 -64 -121z" />
    <glyph glyph-name="dieresis" unicode="&#xa8;" horiz-adv-x="720" 
d="M150 1090q0 78 73 77q80 0 80 -77q0 -78 -80 -78q-73 0 -73 78zM418 1090q0 78 78 77q78 0 77 -77q0 -78 -77 -78q-78 0 -78 78z" />
    <glyph glyph-name="copyright" unicode="&#xa9;" horiz-adv-x="1474" 
d="M162 975q0 129 41 237.5t115.5 185.5t181 120t239.5 43q129 0 236.5 -43t183.5 -120t117 -185.5t41 -237.5q0 -127 -41 -234.5t-117 -185.5t-183.5 -121t-236.5 -43q-133 0 -239.5 43t-181 121t-115.5 185.5t-41 234.5zM246 975q0 -113 33.5 -204t98 -156.5t156 -102.5
t205.5 -37q113 0 204 37t154.5 102.5t97.5 156.5t34 204t-34 206t-97.5 159.5t-154.5 103.5t-204 37q-115 0 -206 -37t-155.5 -103.5t-98 -159.5t-33.5 -206zM399 979q0 78 25 146.5t71 119.5t110.5 81t148.5 30q158 0 268 -127l-61 -58q-88 102 -209 103
q-63 0 -113.5 -23.5t-83.5 -62.5t-50.5 -92.5t-17.5 -112.5q0 -63 17.5 -116.5t51.5 -92.5t84 -62.5t114 -23.5q63 0 115.5 21.5t103.5 72.5l51 -61q-57 -57 -128 -85t-142 -28q-84 0 -148.5 29t-110.5 79t-71 118.5t-25 144.5z" />
    <glyph glyph-name="ordfeminine" unicode="&#xaa;" horiz-adv-x="956" 
d="M156 956q0 66 21.5 126.5t63.5 106.5t104.5 72.5t141.5 26.5q78 0 136.5 -25.5t93.5 -66.5v76h67v-619h-61q0 33 -33 33q-14 0 -37 -10q-41 -14 -84 -23.5t-88 -9.5q-150 0 -237.5 85t-87.5 228zM227 956q0 -111 67.5 -180t199.5 -69q59 0 119.5 20.5t101.5 44.5v229
q0 10 -1 24.5t-3 23.5q-18 82 -75.5 129t-148.5 47q-133 0 -196.5 -78t-63.5 -191z" />
    <glyph glyph-name="guillemotleft" unicode="&#xab;" horiz-adv-x="999" 
d="M113 608l317 412h127l-313 -412l313 -411h-127zM446 608l318 412h129l-313 -412l313 -411h-129z" />
    <glyph glyph-name="logicalnot" unicode="&#xac;" horiz-adv-x="1241" 
d="M143 702v105h957v-105h-957z" />
    <glyph glyph-name="uni00AD" unicode="&#xad;" horiz-adv-x="1067" 
d="M184 514v100h703v-100h-703z" />
    <glyph glyph-name="registered" unicode="&#xae;" horiz-adv-x="1476" 
d="M162 975q0 129 41 237.5t115.5 185.5t181 120t239.5 43t238.5 -43t181.5 -120t117 -185.5t41 -237.5q0 -127 -41 -234.5t-117 -185.5t-181.5 -121t-238.5 -43q-131 0 -238.5 43t-182 121t-115.5 185.5t-41 234.5zM246 975q0 -113 33.5 -204t98 -156.5t157 -102.5
t204.5 -37q113 0 204 37t155.5 102.5t99.5 156.5t35 204t-35 206t-99.5 159.5t-155.5 103.5t-204 37t-205 -37t-156.5 -103.5t-98 -159.5t-33.5 -206zM516 631v579q0 70 51 110t117 40h64q98 0 166.5 -53.5t68.5 -155.5q0 -78 -40 -129t-109 -74l196 -317h-94
q-12 16 -29.5 47t-39 65.5t-45 71.5t-44.5 70q-16 29 -32.5 42t-49.5 13h-96v-309h-84zM600 1016h143q70 0 112 30.5t42 104.5q0 63 -43 98t-104 35h-64q-41 0 -63.5 -19.5t-22.5 -56.5v-192z" />
    <glyph glyph-name="macron" unicode="&#xaf;" horiz-adv-x="806" 
d="M143 1204v99h523v-99h-523z" />
    <glyph glyph-name="degree" unicode="&#xb0;" horiz-adv-x="749" 
d="M131 1182q0 53 18.5 97t50 75.5t78 51t99.5 19.5q104 0 174 -70.5t70 -172.5q0 -53 -18.5 -97.5t-51.5 -77t-79 -50t-97 -17.5q-106 0 -175 68t-69 174zM209 1182q0 -70 48 -118t120 -48q70 0 119 47t49 119q0 70 -49.5 118t-118.5 48q-72 0 -120 -48t-48 -118z" />
    <glyph glyph-name="plusminus" unicode="&#xb1;" horiz-adv-x="1093" 
d="M117 260v102h856v-102h-856zM121 825v99h377v391h98v-391h381v-99h-381v-387h-98v387h-377z" />
    <glyph glyph-name="uni00B2" unicode="&#xb2;" horiz-adv-x="901" 
d="M174 1315q31 106 104.5 156.5t180.5 50.5q106 0 182 -54.5t76 -175.5q0 -63 -32 -111t-80 -92.5t-103.5 -84t-102.5 -83.5t-79.5 -95.5t-32.5 -112.5v-31h426v-98h-529v116q0 80 31 140.5t78 109.5t102.5 89t103.5 79t78.5 80t30.5 92q0 70 -40 102.5t-113 32.5
q-70 0 -118 -32.5t-69 -110.5z" />
    <glyph glyph-name="uni00B3" unicode="&#xb3;" horiz-adv-x="974" 
d="M174 831q29 6 53.5 14.5t51.5 14.5q23 -111 77 -151.5t138 -40.5q86 0 139 52t53 144q0 88 -56.5 140.5t-154.5 52.5h-65v96h57q76 0 115 46t39 108q0 59 -37 94t-95 35q-63 0 -99 -31t-60 -109q-27 8 -49.5 16.5t-49.5 16.5q37 106 102.5 156.5t160.5 50.5
q49 0 92 -13.5t75.5 -43t53 -71.5t20.5 -99q0 -49 -24.5 -99.5t-75.5 -87.5q76 -35 120 -98t44 -156q0 -72 -25.5 -128t-67.5 -95t-97.5 -59.5t-114.5 -20.5q-113 0 -198 61.5t-122 204.5z" />
    <glyph glyph-name="acute" unicode="&#xb4;" horiz-adv-x="600" 
d="M139 995l193 267h133l-240 -267h-86z" />
    <glyph glyph-name="uni00B5" unicode="&#xb5;" horiz-adv-x="1153" 
d="M150 -397v1251h75v-2h2v-508q0 -125 72 -207q76 -86 199 -86q59 0 110 20.5t88 65.5q72 78 72 207v508h80v-483q0 -168 -90 -275q-23 -31 -54.5 -49t-64.5 -37q-23 -8 -31 -26.5t-4 -42.5q4 -25 27.5 -42.5t56.5 -28.5t72 -18.5t76 -9.5v-57q-51 0 -105.5 10t-98.5 29.5
t-74 49.5t-30 71v20q0 10 4 21h-34q-178 0 -273 129v-510h-75z" />
    <glyph glyph-name="paragraph" unicode="&#xb6;" horiz-adv-x="1044" 
d="M147 1008q0 76 25 137t69 105t105.5 68.5t132.5 24.5h189q94 0 141 -50t47 -134v-1274h-102v1276q0 37 -16.5 59.5t-61.5 22.5h-47v-1358h-103v797q-18 0 -40.5 1t-45.5 5q-61 8 -114.5 32.5t-93 64.5t-62.5 95.5t-23 127.5z" />
    <glyph glyph-name="periodcentered" unicode="&#xb7;" horiz-adv-x="452" 
d="M129 651q0 86 88 86q84 0 84 -86q0 -90 -84 -90q-88 0 -88 90z" />
    <glyph glyph-name="cedilla" unicode="&#xb8;" horiz-adv-x="782" 
d="M170 -350l27 74q55 -33 100 -45.5t84 -12.5q59 0 88 24.5t29 61.5q0 84 -99 84q-47 0 -94 -12q4 31 12.5 74t14.5 79q8 45 16 95h76q-2 -20 -6 -41q-4 -18 -6 -39t-6 -39q-8 -37 34 -39q74 -4 115 -44t41 -108q0 -88 -60.5 -131t-146.5 -43h-6q-51 2 -104.5 14.5
t-108.5 47.5z" />
    <glyph glyph-name="uni00B9" unicode="&#xb9;" horiz-adv-x="559" 
d="M164 1282v107q25 18 47 32.5t47 32.5q35 23 66 23q20 0 35.5 -17.5t15.5 -54.5v-825h-101v776q-29 -18 -55 -37t-55 -37z" />
    <glyph glyph-name="ordmasculine" unicode="&#xba;" horiz-adv-x="815" 
d="M88 965q0 70 23.5 129t65.5 102t100.5 65.5t130.5 22.5q147 0 233 -87t86 -232t-87 -234.5t-232 -89.5q-72 0 -130.5 24.5t-100.5 67.5t-65.5 101.5t-23.5 130.5zM162 967q0 -111 66.5 -184.5t179.5 -73.5t180 72.5t67 185.5t-67.5 185.5t-179.5 72.5
q-111 0 -178.5 -74.5t-67.5 -183.5z" />
    <glyph glyph-name="guillemotright" unicode="&#xbb;" horiz-adv-x="999" 
d="M104 197l314 411l-314 412h129l318 -412l-318 -411h-129zM442 197l314 411l-314 412h123l320 -412l-320 -411h-123z" />
    <glyph glyph-name="onequarter" unicode="&#xbc;" horiz-adv-x="1798" 
d="M182 1282v107q23 18 46.5 32.5t47.5 32.5q33 23 64 23q23 0 37 -17.5t14 -54.5v-825h-98v776q-29 -18 -55.5 -37t-55.5 -37zM233 -27q258 393 512 781.5t510 783.5h93q-258 -395 -511 -783t-509 -782h-95zM973 324q0 37 28 71q100 137 197.5 272.5t196.5 272.5h96v-596
h86v-94h-86v-250h-107v250h-325q-10 0 -25.5 2t-29 10t-22.5 22.5t-9 39.5zM1085 344h299v418q-76 -106 -149.5 -209t-149.5 -209z" />
    <glyph glyph-name="onehalf" unicode="&#xbd;" horiz-adv-x="1810" 
d="M184 1280v109l88 59q43 33 82 24.5t39 -65.5v-827h-98v774zM238 -27l1017 1565h95l-1020 -1565h-92zM1090 729q33 109 105.5 159t178.5 50q109 0 183.5 -54.5t74.5 -174.5q0 -63 -31.5 -111.5t-79.5 -92.5t-103.5 -84t-102.5 -84t-79 -95.5t-32 -112.5v-31h424v-98h-528
v117q0 80 30.5 139t77.5 109.5t102.5 90.5t103.5 78.5t79 79.5t31 93q0 70 -40 101.5t-112 31.5t-119 -32t-69 -110z" />
    <glyph glyph-name="threequarters" unicode="&#xbe;" horiz-adv-x="1869" 
d="M174 831q29 6 53.5 14.5t51.5 14.5q23 -111 77 -151.5t138 -40.5q86 0 139 54t53 146q0 90 -56.5 139.5t-154.5 49.5h-65v96h57q76 0 115 46t39 108q0 59 -37 94t-95 35q-63 0 -99 -31t-60 -109q-27 8 -49.5 16.5t-49.5 16.5q37 106 101.5 156.5t159.5 50.5
q49 0 93 -16.5t76.5 -45t53 -71.5t20.5 -98q0 -51 -24.5 -98.5t-75.5 -84.5q76 -35 120 -99.5t44 -156.5q0 -70 -25.5 -125t-67.5 -94t-97.5 -60.5t-114.5 -21.5q-113 0 -198 61.5t-122 204.5zM442 -27l1018 1565h92l-1022 -1565h-88zM1061 324q0 37 29 71
q100 137 197 272.5t198 272.5h94v-596h86v-94h-86v-250h-106v250h-324q-12 0 -27.5 2t-29 10t-22.5 22.5t-9 39.5zM1174 344h299v418q-74 -106 -148.5 -209t-150.5 -209z" />
    <glyph glyph-name="questiondown" unicode="&#xbf;" horiz-adv-x="1007" 
d="M109 285q0 80 27.5 142t67.5 116.5t88 102.5t88 103.5t67.5 121t27.5 149.5v137h117v-133q0 -90 -21.5 -157.5t-58.5 -125t-82 -107.5t-92 -104q-45 -53 -79 -111.5t-34 -135.5q0 -98 64.5 -161t208.5 -63q106 0 188 36t127 124q25 -10 51.5 -22.5t50.5 -24.5
q-31 -63 -76.5 -106t-101 -69t-118 -37t-123.5 -11q-193 0 -290 92t-97 244zM440 1440q0 43 24.5 69.5t67.5 26.5q45 0 72 -26.5t27 -69.5q0 -45 -26.5 -71t-72.5 -26q-41 0 -66.5 26t-25.5 71z" />
    <glyph glyph-name="Agrave" unicode="&#xc0;" horiz-adv-x="1400" 
d="M63 0q43 127 87.5 256t85 253t80.5 239.5t73 218.5q80 238 154 454q18 59 55 97t102 38q72 0 106 -37.5t54 -97.5l477 -1421h-129l-211 641h-591l-213 -641h-130zM438 752h523l-211 632q-8 25 -18.5 44.5t-29.5 19.5q-16 0 -27 -19.5t-20 -44.5zM440 2013h158l236 -325
h-95z" />
    <glyph glyph-name="Aacute" unicode="&#xc1;" horiz-adv-x="1400" 
d="M63 0q43 127 87.5 256t85 253t80.5 239.5t73 218.5q80 238 154 454q18 59 55 97t102 38q72 0 106 -37.5t54 -97.5l477 -1421h-129l-211 641h-591l-213 -641h-130zM438 752h523l-211 632q-8 25 -18.5 44.5t-29.5 19.5q-18 0 -27 -18.5t-20 -45.5zM537 1686l237 327h158
l-301 -327h-94z" />
    <glyph glyph-name="Acircumflex" unicode="&#xc2;" horiz-adv-x="1400" 
d="M63 0q43 127 87.5 256t85 253t80.5 239.5t73 218.5q80 238 154 454q18 59 55 97t102 38q72 0 106 -37.5t54 -97.5l477 -1421h-129l-211 641h-591l-213 -641h-130zM397 1686l213 278q45 55 98.5 54t96.5 -58l211 -274h-101l-213 231l-208 -231h-97zM438 752h523l-211 632
q-8 25 -18.5 44.5t-29.5 19.5q-18 0 -27 -18.5t-20 -45.5z" />
    <glyph glyph-name="Atilde" unicode="&#xc3;" horiz-adv-x="1400" 
d="M63 0q43 127 87.5 256t85 253t80.5 239.5t73 218.5q80 238 154 454q18 59 55 97t102 38q72 0 106 -37.5t54 -97.5l477 -1421h-129l-211 641h-591l-213 -641h-130zM354 1720q72 141 207 142q47 0 85 -14.5t71 -32t63.5 -32t67.5 -14.5q41 0 78 23t69 76l72 -45
q-49 -74 -100.5 -107t-120.5 -33q-45 0 -83 14.5t-71 32t-63.5 32t-65.5 14.5q-47 0 -77.5 -21.5t-61.5 -75.5q-16 10 -35 20.5t-35 20.5zM438 752h523l-211 632q-8 25 -18.5 44.5t-29.5 19.5q-18 0 -27 -18.5t-20 -45.5z" />
    <glyph glyph-name="Adieresis" unicode="&#xc4;" horiz-adv-x="1400" 
d="M63 0q43 127 87.5 256t85 253t80.5 239.5t73 218.5q80 238 154 454q18 59 55 97t102 38q72 0 106 -37.5t54 -97.5l477 -1421h-129l-211 641h-591l-213 -641h-130zM438 752h523l-211 632q-8 25 -18.5 44.5t-29.5 19.5q-16 0 -27 -19.5t-20 -44.5zM438 1786q0 88 88 88
q90 0 90 -88q0 -94 -90 -94q-88 0 -88 94zM786 1786q0 88 91 88q90 0 90 -88q0 -94 -90 -94q-91 0 -91 94z" />
    <glyph glyph-name="Aring" unicode="&#xc5;" horiz-adv-x="1400" 
d="M63 0q43 127 87.5 256t85 253t80.5 239.5t73 218.5q80 238 154 454q18 59 55 97t102 38q72 0 106 -37.5t54 -97.5l477 -1421h-129l-211 641h-591l-213 -641h-130zM438 752h523l-211 632q-8 25 -18.5 44.5t-29.5 19.5q-16 0 -27 -19.5t-20 -44.5zM498 1886q0 94 56 150.5
t148 56.5q96 0 152.5 -54t56.5 -153q0 -92 -57 -149.5t-152 -57.5q-92 0 -148 57.5t-56 149.5zM582 1886q0 -57 32.5 -90t92.5 -33q57 0 89.5 33t32.5 90q0 53 -35.5 91t-86.5 38q-53 0 -89 -37t-36 -92z" />
    <glyph glyph-name="AE" unicode="&#xc6;" horiz-adv-x="2052" 
d="M39 0q225 350 447.5 695t445.5 694q47 78 94 121.5t137 43.5h789v-110h-762v-610h672v-105h-672v-536q0 -35 17.5 -58.5t62.5 -23.5h682v-111h-684q-98 0 -147.5 52t-49.5 138v535h-432q-115 -182 -230.5 -362.5t-232.5 -362.5h-137zM711 834h360v565
q-27 -41 -110.5 -173t-249.5 -392z" />
    <glyph glyph-name="Ccedilla" unicode="&#xc7;" horiz-adv-x="1566" 
d="M193 772q0 172 51 318.5t146 252t229.5 166t302.5 60.5q303 0 536 -240q-20 -23 -39.5 -43t-42.5 -43q-197 211 -458 211q-139 0 -251 -52t-190 -143.5t-118 -215t-40 -267.5q0 -145 42 -269t120 -216t190.5 -144.5t256.5 -52.5q127 0 246.5 47t226.5 154
q16 -25 34.5 -51.5t34.5 -50.5q-113 -106 -249 -157.5t-275 -55.5q-2 -8 -3 -22.5t-5 -31.5v-6q0 -27 33 -26q68 0 107.5 -35t39.5 -107q0 -90 -61.5 -132t-147.5 -42q-51 0 -102 11.5t-109 43.5q8 18 15.5 38l13.5 36q49 -31 98 -40t84 -9q57 2 84 24.5t27 59.5
q0 35 -23.5 55.5t-66.5 20.5q-25 0 -50.5 -2t-50.5 -11q8 45 16.5 89.5t16.5 87.5q-154 12 -277.5 74.5t-211.5 167t-134 244.5t-46 304z" />
    <glyph glyph-name="Egrave" unicode="&#xc8;" horiz-adv-x="1220" 
d="M229 0v1221q0 25 2 53.5t9 44.5q16 92 84.5 157.5t177.5 75.5q12 2 45 3t63 1h465v-110h-504q-16 0 -41.5 -2t-42.5 -6q-57 -16 -93 -54t-42 -118q-2 -18 -2 -35v-23v-344h645v-112h-645v-643h766v-109h-887zM459 2013h157q57 -82 118 -164t118 -163h-96
q-74 82 -148.5 163.5t-148.5 163.5z" />
    <glyph glyph-name="Eacute" unicode="&#xc9;" horiz-adv-x="1220" 
d="M229 0v1221q0 25 2 53.5t9 44.5q16 92 84.5 157.5t177.5 75.5q12 2 45 3t63 1h465v-110h-504q-16 0 -41.5 -2t-42.5 -6q-57 -16 -93 -54t-42 -118q-2 -18 -2 -35v-23v-344h645v-112h-645v-643h766v-109h-887zM543 1688q57 82 116.5 163.5t116.5 163.5h160
q-76 -82 -150.5 -164t-150.5 -163h-92z" />
    <glyph glyph-name="Ecircumflex" unicode="&#xca;" horiz-adv-x="1220" 
d="M229 0v1221q0 25 2 53.5t9 44.5q16 92 84.5 157.5t177.5 75.5q12 2 45 3t63 1h465v-110h-504q-16 0 -41.5 -2t-42.5 -6q-57 -16 -93 -54t-42 -118q-2 -18 -2 -35v-23v-344h645v-112h-645v-643h766v-109h-887zM371 1686l213 278q45 55 98 54t96 -58l211 -274h-100
l-213 231l-209 -231h-96z" />
    <glyph glyph-name="Edieresis" unicode="&#xcb;" horiz-adv-x="1220" 
d="M229 0v1221q0 25 2 53.5t9 44.5q16 92 84.5 157.5t177.5 75.5q12 2 45 3t63 1h465v-110h-504q-16 0 -41.5 -2t-42.5 -6q-57 -16 -93 -54t-42 -118q-2 -18 -2 -35v-23v-344h645v-112h-645v-643h766v-109h-887zM424 1786q0 88 90 88t90 -88q0 -94 -90 -94t-90 94zM774 1786
q0 88 88 88q90 0 90 -88q0 -94 -90 -94q-88 0 -88 94z" />
    <glyph glyph-name="Igrave" unicode="&#xcc;" horiz-adv-x="573" 
d="M106 2013h158l236 -325h-92zM225 0v1556h125v-1556h-125z" />
    <glyph glyph-name="Iacute" unicode="&#xcd;" horiz-adv-x="575" 
d="M121 1686l237 327h160l-301 -327h-96zM227 0v1556h123v-1556h-123z" />
    <glyph glyph-name="Icircumflex" unicode="&#xce;" horiz-adv-x="573" 
d="M-20 1686l213 278q45 55 97 54t97 -58l211 -274h-98l-213 231l-211 -231h-96zM225 0v1556h125v-1556h-125z" />
    <glyph glyph-name="Idieresis" unicode="&#xcf;" horiz-adv-x="573" 
d="M25 1786q0 88 88 88t88 -88q0 -94 -88 -94t-88 94zM227 0v1556h123v-1556h-123zM375 1786q0 88 88 88t88 -88q0 -94 -88 -94t-88 94z" />
    <glyph glyph-name="Eth" unicode="&#xd0;" horiz-adv-x="1556" 
d="M51 721v106h178v433q0 113 60.5 186.5t159.5 99.5q29 8 69.5 13.5t71.5 5.5h90q182 0 320.5 -64.5t231.5 -174t139 -252t46 -300.5t-44 -298t-132 -246.5t-220 -168t-304 -61.5h-488v721h-178zM350 109h340q31 0 63.5 1t51.5 3q113 14 204 66t153.5 138t97 202t34.5 255
q0 129 -36.5 252t-111.5 217t-190.5 152.5t-273.5 58.5h-102q-98 0 -164 -47t-66 -156v-424h332v-106h-332v-612z" />
    <glyph glyph-name="Ntilde" unicode="&#xd1;" horiz-adv-x="1615" 
d="M229 0v1417q0 70 37 112t105 42q66 0 107.5 -39t74.5 -105q12 -27 57 -116.5t106.5 -213.5t133.5 -268.5t139.5 -279.5t121.5 -245.5t83 -166.5q23 -39 45 -39q29 0 29 43v1415h118v-1415q0 -70 -39.5 -110.5t-103.5 -40.5q-104 0 -156 96q-35 70 -93 187.5t-125.5 255
t-138.5 279.5t-132 263t-103 205t-51 104q-25 51 -38 65.5t-29 14.5q-27 0 -27 -43v-1417h-121zM459 1720q72 141 207 142q47 0 83.5 -14.5t70.5 -32t64.5 -32t65.5 -14.5q43 0 80 23t70 76l69 -45q-47 -74 -98 -107t-123 -33q-43 0 -81 14.5t-70.5 32t-64.5 32t-64 14.5
q-49 0 -79 -21.5t-61 -75.5q-18 10 -35.5 20.5t-33.5 20.5z" />
    <glyph glyph-name="Ograve" unicode="&#xd2;" horiz-adv-x="1708" 
d="M154 776q0 164 42 310.5t129 254t219 171t314 63.5q172 0 304 -63.5t220 -171t132.5 -254t44.5 -310.5q0 -158 -45.5 -302t-132.5 -254.5t-218 -177.5t-303 -67q-178 0 -312 64.5t-221 174.5t-130 254t-43 308zM274 778q0 -139 34 -265t105.5 -220t183.5 -149.5
t263 -55.5q152 0 259.5 56.5t177 151.5t102.5 220t33 262q0 141 -35 266t-106.5 218.5t-179 147.5t-253.5 54q-152 0 -262.5 -54t-182 -148.5t-105.5 -219.5t-34 -264zM651 2013h158l235 -325h-94z" />
    <glyph glyph-name="Oacute" unicode="&#xd3;" horiz-adv-x="1708" 
d="M154 776q0 164 42 310.5t129 254t219 171t314 63.5q172 0 304 -63.5t220 -171t132.5 -254t44.5 -310.5q0 -158 -45.5 -302t-132.5 -254.5t-218 -177.5t-303 -67q-178 0 -312 64.5t-221 174.5t-130 254t-43 308zM274 778q0 -139 34 -265t105.5 -220t183.5 -149.5
t263 -55.5q152 0 259.5 56.5t177 151.5t102.5 220t33 262q0 141 -35 266t-106.5 218.5t-179 147.5t-253.5 54q-152 0 -262.5 -54t-182 -148.5t-105.5 -219.5t-34 -264zM690 1686l234 327h159l-301 -327h-92z" />
    <glyph glyph-name="Ocircumflex" unicode="&#xd4;" horiz-adv-x="1708" 
d="M154 776q0 164 42 310.5t129 254t219 171t314 63.5q172 0 304 -63.5t220 -171t132.5 -254t44.5 -310.5q0 -158 -45.5 -302t-132.5 -254.5t-218 -177.5t-303 -67q-178 0 -312 64.5t-221 174.5t-130 254t-43 308zM274 778q0 -139 34 -265t105.5 -220t183.5 -149.5
t263 -55.5q152 0 259.5 56.5t177 151.5t102.5 220t33 262q0 141 -35 266t-106.5 218.5t-179 147.5t-253.5 54q-152 0 -262.5 -54t-182 -148.5t-105.5 -219.5t-34 -264zM545 1686l211 278q45 55 99 54t97 -58l209 -274h-98l-211 231l-213 -231h-94z" />
    <glyph glyph-name="Otilde" unicode="&#xd5;" horiz-adv-x="1708" 
d="M154 776q0 164 42 310.5t129 254t219 171t314 63.5q172 0 304 -63.5t220 -171t132.5 -254t44.5 -310.5q0 -158 -45.5 -302t-132.5 -254.5t-218 -177.5t-303 -67q-178 0 -312 64.5t-221 174.5t-130 254t-43 308zM274 778q0 -139 34 -265t105.5 -220t183.5 -149.5
t263 -55.5q152 0 259.5 56.5t177 151.5t102.5 220t33 262q0 141 -35 266t-106.5 218.5t-179 147.5t-253.5 54q-152 0 -262.5 -54t-182 -148.5t-105.5 -219.5t-34 -264zM496 1720q74 141 206 142q47 0 85 -14.5t71 -32t63.5 -32t67.5 -14.5q41 0 78 23t70 76l71 -45
q-49 -74 -100 -107t-121 -33q-45 0 -83 14.5t-70.5 32t-63.5 32t-63 14.5q-49 0 -79 -21.5t-63 -75.5q-16 10 -33.5 20.5t-35.5 20.5z" />
    <glyph glyph-name="Odieresis" unicode="&#xd6;" horiz-adv-x="1708" 
d="M154 776q0 164 42 310.5t129 254t219 171t314 63.5q172 0 304 -63.5t220 -171t132.5 -254t44.5 -310.5q0 -158 -45.5 -302t-132.5 -254.5t-218 -177.5t-303 -67q-178 0 -312 64.5t-221 174.5t-130 254t-43 308zM274 778q0 -139 34 -265t105.5 -220t183.5 -149.5
t263 -55.5q152 0 259.5 56.5t177 151.5t102.5 220t33 262q0 141 -35 266t-106.5 218.5t-179 147.5t-253.5 54q-152 0 -262.5 -54t-182 -148.5t-105.5 -219.5t-34 -264zM588 1786q0 88 92 88q88 0 88 -88q0 -94 -88 -94q-92 0 -92 94zM938 1786q0 88 90 88q88 0 88 -88
q0 -94 -88 -94q-90 0 -90 94z" />
    <glyph glyph-name="multiply" unicode="&#xd7;" horiz-adv-x="1153" 
d="M84 920l57 57l432 -432l433 432l57 -57l-430 -433l436 -436l-57 -59l-437 438l-434 -434l-55 59l432 434z" />
    <glyph glyph-name="Oslash" unicode="&#xd8;" horiz-adv-x="1708" 
d="M154 776q0 164 42 310.5t129 254t219 171t314 63.5q115 0 209 -27l47 119h125l-65 -162q96 -45 167.5 -120.5t120.5 -169t73 -206t24 -233.5q0 -158 -45.5 -302t-132.5 -254.5t-218 -177.5t-303 -67q-152 0 -268 52l-64 -158h-120l81 205q-86 49 -149.5 123.5t-104 165
t-61 195.5t-20.5 218zM274 778q0 -188 61.5 -346t194.5 -248l498 1258q-76 23 -170 22q-152 0 -262.5 -54t-182 -148.5t-105.5 -219.5t-34 -264zM633 133q90 -45 227 -45q152 0 259.5 56.5t177 151.5t102.5 220t33 262q0 207 -74 373t-225 250z" />
    <glyph glyph-name="Ugrave" unicode="&#xd9;" horiz-adv-x="1552" 
d="M229 520v1036h121v-1013q0 -45 3 -94.5t9 -79.5q27 -123 132.5 -203t314.5 -80q43 0 97.5 6t107.5 15.5t100 21.5t78 27v1400h119v-1488q-104 -35 -235.5 -65t-270.5 -30q-227 0 -364.5 86t-186.5 240q-12 43 -18.5 99t-6.5 122zM514 2013h158l235 -327h-94z" />
    <glyph glyph-name="Uacute" unicode="&#xda;" horiz-adv-x="1552" 
d="M229 520v1036h121v-1013q0 -45 3 -94.5t9 -79.5q27 -123 132.5 -203t314.5 -80q43 0 97.5 6t107.5 15.5t100 21.5t78 27v1400h119v-1488q-104 -35 -235.5 -65t-270.5 -30q-227 0 -364.5 86t-186.5 240q-12 43 -18.5 99t-6.5 122zM645 1686l238 327h159l-301 -327h-96z
" />
    <glyph glyph-name="Ucircumflex" unicode="&#xdb;" horiz-adv-x="1552" 
d="M229 520v1036h121v-1013q0 -45 3 -94.5t9 -79.5q27 -123 132.5 -203t314.5 -80q43 0 97.5 6t107.5 15.5t100 21.5t78 27v1400h119v-1488q-104 -35 -235.5 -65t-270.5 -30q-227 0 -364.5 86t-186.5 240q-12 43 -18.5 99t-6.5 122zM465 1686l211 278q45 55 98 54t98 -58
l209 -274h-98l-213 231l-211 -231h-94z" />
    <glyph glyph-name="Udieresis" unicode="&#xdc;" horiz-adv-x="1552" 
d="M229 510v1046h123v-1036q0 -45 2 -79.5t6 -59.5q14 -61 47 -115.5t88.5 -94.5t134.5 -62.5t181 -22.5q43 0 96.5 6t104.5 15.5t98 21.5t78 27v1400h123v-1488q-104 -35 -235.5 -65t-270.5 -30q-227 0 -364.5 86t-186.5 240q-25 86 -25 211zM502 1786q0 88 90 88t90 -88
q0 -94 -90 -94t-90 94zM852 1786q0 88 90 88q88 0 88 -88q0 -94 -88 -94q-90 0 -90 94z" />
    <glyph glyph-name="Yacute" unicode="&#xdd;" horiz-adv-x="1239" 
d="M577 1708l193 267h133l-240 -267h-86zM47 1559h137l434 -766l439 766h137l-457 -791q-16 -27 -27.5 -46.5t-17.5 -37.5t-8 -40.5t-2 -53.5v-588h-123v588q0 31 -3 53.5t-9 40.5t-17.5 37.5t-27.5 46.5z" />
    <glyph glyph-name="Thorn" unicode="&#xde;" horiz-adv-x="1273" 
d="M229 0v997v19v540h121v-323q25 23 58.5 39t64.5 20q20 4 52 5t61 1h90q25 0 60.5 -1t60.5 -5q84 -12 154.5 -48t120.5 -95t78 -136t28 -171q0 -98 -30 -179t-80 -140.5t-119.5 -98.5t-151.5 -59q-78 -16 -181 -17h-266v-348h-121zM350 459h283q33 0 69.5 2t61.5 6
q131 25 212 121t81 252q0 68 -20.5 126t-57.5 104t-88 77t-113 39q-16 4 -47 5t-55 1h-96q-31 0 -57.5 -2t-45.5 -6q-127 -39 -127 -183v-542z" />
    <glyph glyph-name="germandbls" unicode="&#xdf;" horiz-adv-x="1150" 
d="M195 0v1018q0 203 98 306t280 103q143 0 227.5 -67.5t84.5 -202.5q0 -100 -47 -158.5t-113 -105.5q-70 -51 -99.5 -82t-29.5 -68q0 -45 43 -73.5t135 -73.5q121 -63 199 -157.5t78 -241.5q0 -74 -23.5 -138.5t-75 -113.5t-131.5 -77t-192 -28h-150v103h174
q137 0 210 68.5t73 181.5q0 94 -37 153.5t-91 99t-117.5 68.5t-119.5 66q-41 27 -66.5 63.5t-25.5 93.5q0 68 34 106t77 70q31 25 63.5 48.5t58 50t42 61.5t16.5 82q0 86 -58.5 130t-138.5 44t-132 -24.5t-82.5 -67.5t-43 -105.5t-12.5 -138.5v-993h-108z" />
    <glyph glyph-name="agrave" unicode="&#xe0;" horiz-adv-x="1355" 
d="M141 514q0 113 37 215t106.5 179t169 122t228.5 45q125 0 215 -42t145 -113v133h111v-1053h-100q0 2 -1 4t-1 4q-4 25 -17.5 35t-29.5 10q-4 0 -6.5 -1t-6.5 -1q-8 0 -15 -3t-13 -5q-43 -14 -83 -25.5t-81 -19.5q-59 -14 -129 -14q-121 0 -218.5 37.5t-166 106.5
t-106.5 167t-38 219zM258 516q0 -96 27.5 -174t81 -136.5t132.5 -90t183 -31.5q98 0 194.5 29.5t161.5 68.5v426q0 18 -2 36t-4 28q-6 72 -34.5 128t-74.5 95t-106.5 59.5t-128.5 20.5q-106 0 -187 -36t-134.5 -99.5t-81 -147.5t-27.5 -176zM408 1528h157q59 -82 118.5 -163
t119.5 -161h-96z" />
    <glyph glyph-name="aacute" unicode="&#xe1;" horiz-adv-x="1355" 
d="M141 514q0 113 37 215t106.5 179t169 122t228.5 45q125 0 215 -42t145 -113v133h111v-1053h-100q0 2 -1 4t-1 4q-4 25 -17.5 35t-29.5 10q-4 0 -6.5 -1t-6.5 -1q-8 0 -15 -3t-13 -5q-43 -14 -83 -25.5t-81 -19.5q-59 -14 -129 -14q-121 0 -218.5 37.5t-166 106.5
t-106.5 167t-38 219zM258 516q0 -96 27.5 -174t81 -136.5t132.5 -90t183 -31.5q98 0 194.5 29.5t161.5 68.5v426q0 18 -2 36t-4 28q-6 72 -34.5 128t-74.5 95t-106.5 59.5t-128.5 20.5q-106 0 -187 -36t-134.5 -99.5t-81 -147.5t-27.5 -176zM549 1204q59 80 118.5 161
t116.5 163h160q-76 -82 -150.5 -163t-150.5 -161h-94z" />
    <glyph glyph-name="acircumflex" unicode="&#xe2;" horiz-adv-x="1355" 
d="M141 514q0 113 37 215t106.5 179t169 122t228.5 45q125 0 215 -42t145 -113v133h111v-1053h-100q0 2 -1 4t-1 4q-4 25 -17.5 35t-29.5 10q-4 0 -6.5 -1t-6.5 -1q-8 0 -15 -3t-13 -5q-43 -14 -83 -25.5t-81 -19.5q-59 -14 -129 -14q-121 0 -218.5 37.5t-166 106.5
t-106.5 167t-38 219zM258 516q0 -96 27.5 -174t81 -136.5t132.5 -90t183 -31.5q98 0 194.5 29.5t161.5 68.5v426q0 18 -2 36t-4 28q-6 72 -34.5 128t-74.5 95t-106.5 59.5t-128.5 20.5q-106 0 -187 -36t-134.5 -99.5t-81 -147.5t-27.5 -176zM367 1200l213 281q25 23 48 37
t48 14q53 0 98 -57q53 -68 106.5 -136.5t104.5 -138.5h-100q-51 59 -105.5 117.5t-105.5 116.5l-211 -234h-96z" />
    <glyph glyph-name="atilde" unicode="&#xe3;" horiz-adv-x="1355" 
d="M141 514q0 113 37 215t106.5 179t169 122t228.5 45q125 0 215 -42t145 -113v133h111v-1053h-100q0 2 -1 4t-1 4q-4 25 -17.5 35t-29.5 10q-4 0 -6.5 -1t-6.5 -1q-8 0 -15 -3t-13 -5q-43 -14 -83 -25.5t-81 -19.5q-59 -14 -129 -14q-121 0 -218.5 37.5t-166 106.5
t-106.5 167t-38 219zM258 516q0 -96 27.5 -174t81 -136.5t132.5 -90t183 -31.5q98 0 194.5 29.5t161.5 68.5v426q0 18 -2 36t-4 28q-6 72 -34.5 128t-74.5 95t-106.5 59.5t-128.5 20.5q-106 0 -187 -36t-134.5 -99.5t-81 -147.5t-27.5 -176zM334 1303q74 141 209 141
q45 0 83 -14.5t70.5 -32t64.5 -31.5t66 -14q41 0 78 21.5t70 74.5l72 -43q-49 -74 -100.5 -106.5t-121.5 -32.5q-45 0 -81.5 14t-70.5 31.5t-64.5 32t-63.5 14.5q-49 0 -79 -21.5t-60 -74.5q-18 10 -36 20.5t-36 20.5z" />
    <glyph glyph-name="adieresis" unicode="&#xe4;" horiz-adv-x="1355" 
d="M141 514q0 113 37 215t106.5 179t169 122t228.5 45q125 0 215 -42t145 -113v133h111v-1053h-100q0 2 -1 4t-1 4q-4 25 -17.5 35t-29.5 10q-4 0 -6.5 -1t-6.5 -1q-8 0 -15 -3t-13 -5q-43 -14 -83 -25.5t-81 -19.5q-59 -14 -129 -14q-121 0 -218.5 37.5t-166 106.5
t-106.5 167t-38 219zM258 516q0 -96 27.5 -174t81 -136.5t132.5 -90t183 -31.5q98 0 194.5 29.5t161.5 68.5v426q0 18 -2 36t-4 28q-6 72 -34.5 128t-74.5 95t-106.5 59.5t-128.5 20.5q-106 0 -187 -36t-134.5 -99.5t-81 -147.5t-27.5 -176zM412 1352q0 88 88 88t88 -88
q0 -92 -88 -92t-88 92zM762 1352q0 88 88 88t88 -88q0 -92 -88 -92t-88 92z" />
    <glyph glyph-name="aring" unicode="&#xe5;" horiz-adv-x="1355" 
d="M141 514q0 113 37 215t106.5 179t169 122t228.5 45q125 0 215 -42t145 -113v133h111v-1053h-100q0 2 -1 4t-1 4q-4 25 -17.5 35t-29.5 10q-4 0 -6.5 -1t-6.5 -1q-8 0 -15 -3t-13 -5q-43 -14 -83 -25.5t-81 -19.5q-59 -14 -129 -14q-121 0 -218.5 37.5t-166 106.5
t-106.5 167t-38 219zM258 516q0 -96 27.5 -174t81 -136.5t132.5 -90t183 -31.5q98 0 194.5 29.5t161.5 68.5v426q0 18 -2 36t-4 28q-6 72 -34.5 128t-74.5 95t-106.5 59.5t-128.5 20.5q-106 0 -187 -36t-134.5 -99.5t-81 -147.5t-27.5 -176zM473 1407q0 92 56.5 148.5
t150.5 56.5q92 0 149.5 -55.5t57.5 -149.5q0 -92 -57.5 -150.5t-149.5 -58.5q-94 0 -150.5 58.5t-56.5 150.5zM555 1407q0 -57 35 -91t92 -34t89 34t32 91q0 53 -34 91t-87 38q-55 0 -91 -38t-36 -91z" />
    <glyph glyph-name="ae" unicode="&#xe6;" horiz-adv-x="2172" 
d="M145 504q0 111 37 212t105.5 177t168 121t228.5 45q88 0 157.5 -18.5t123 -49t91.5 -72.5t60 -92q66 113 177.5 176.5t250.5 63.5q106 0 190.5 -36t144.5 -99.5t97 -149.5t45 -190q2 -16 2 -31.5t2 -28.5q0 -12 3 -26h-867q6 -195 119 -306.5t305 -111.5q100 0 186.5 34
t170.5 89l49 -90q-100 -63 -194.5 -98t-221.5 -35q-135 0 -242.5 48t-175.5 134v-170h-96q-2 18 -10.5 33.5t-32.5 15.5q-18 0 -34.5 -5t-37.5 -11q-66 -23 -132 -36t-144 -13q-121 0 -218.5 36.5t-165 105.5t-104.5 165t-37 213zM266 506q0 -92 29 -170t83 -134.5t133 -87
t183 -30.5q92 0 185.5 31.5t158.5 66.5v414q0 35 -3 66.5t-7 54.5q-27 117 -116 179t-220 62q-106 0 -186 -36.5t-133.5 -98t-80 -143.5t-26.5 -174zM1163 606h740q-25 166 -112 263.5t-245 97.5t-259 -97.5t-124 -263.5z" />
    <glyph glyph-name="ccedilla" unicode="&#xe7;" horiz-adv-x="1196" 
d="M135 530q0 115 38 213.5t107.5 172t166 115.5t212.5 42q147 0 242.5 -45t177.5 -131l-84 -70q-68 70 -147.5 107t-190.5 37q-94 0 -167.5 -34t-127 -94.5t-81 -137t-27.5 -162.5q0 -215 111.5 -335t304.5 -120q100 0 190 37t168 100l59 -82q-88 -76 -188 -114.5
t-219 -40.5l-12 -49q-4 -31 32 -31q66 0 108 -39t42 -102q0 -90 -63.5 -131.5t-147.5 -41.5q-49 0 -99.5 12.5t-101.5 41.5l27 71q53 -27 96 -38t80 -11q57 2 86 26.5t29 61.5q0 78 -90 78q-27 0 -47.5 -2t-45.5 -10l29 166q-111 8 -199 52t-147 114.5t-90 165.5t-31 208z
" />
    <glyph glyph-name="egrave" unicode="&#xe8;" horiz-adv-x="1273" 
d="M141 532q0 121 38 220.5t105.5 171t160 112.5t202.5 41q106 0 191.5 -34.5t148 -97t100 -148.5t43.5 -193q2 -16 4.5 -47t2.5 -39h-877q6 -197 115.5 -315.5t308.5 -118.5q106 0 195.5 31.5t169.5 87.5l51 -86q-94 -63 -195.5 -98t-230.5 -35q-125 0 -224.5 39.5
t-167 113.5t-104.5 174t-37 221zM264 614h748q-20 166 -109.5 265.5t-251.5 99.5q-80 0 -146.5 -25.5t-117.5 -75t-83 -116t-40 -148.5zM391 1528h160l235 -324h-96z" />
    <glyph glyph-name="eacute" unicode="&#xe9;" horiz-adv-x="1273" 
d="M141 532q0 121 38 220.5t105.5 171t160 112.5t202.5 41q106 0 191.5 -34.5t148 -97t100 -148.5t43.5 -193q2 -16 4.5 -47t2.5 -39h-877q6 -197 115.5 -315.5t308.5 -118.5q106 0 195.5 31.5t169.5 87.5l51 -86q-94 -63 -195.5 -98t-230.5 -35q-125 0 -224.5 39.5
t-167 113.5t-104.5 174t-37 221zM264 614h748q-20 166 -109.5 265.5t-251.5 99.5q-80 0 -146.5 -25.5t-117.5 -75t-83 -116t-40 -148.5zM535 1204l237 324h160l-301 -324h-96z" />
    <glyph glyph-name="ecircumflex" unicode="&#xea;" horiz-adv-x="1273" 
d="M141 532q0 121 38 220.5t105.5 171t160 112.5t202.5 41q106 0 191.5 -34.5t148 -97t100 -148.5t43.5 -193q2 -16 4.5 -47t2.5 -39h-877q6 -197 115.5 -315.5t308.5 -118.5q106 0 195.5 31.5t169.5 87.5l51 -86q-94 -63 -195.5 -98t-230.5 -35q-125 0 -224.5 39.5
t-167 113.5t-104.5 174t-37 221zM264 614h748q-20 166 -109.5 265.5t-251.5 99.5q-80 0 -146.5 -25.5t-117.5 -75t-83 -116t-40 -148.5zM336 1200l213 281q43 55 96 53t98 -59l209 -275h-98l-211 234l-211 -234h-96z" />
    <glyph glyph-name="edieresis" unicode="&#xeb;" horiz-adv-x="1273" 
d="M141 532q0 121 38 220.5t105.5 171t160 112.5t202.5 41q106 0 191.5 -34.5t148 -97t100 -148.5t43.5 -193q2 -16 4.5 -47t2.5 -39h-877q6 -197 115.5 -315.5t308.5 -118.5q106 0 195.5 31.5t169.5 87.5l51 -86q-94 -63 -195.5 -98t-230.5 -35q-125 0 -224.5 39.5
t-167 113.5t-104.5 174t-37 221zM264 614h748q-20 166 -109.5 265.5t-251.5 99.5q-80 0 -146.5 -25.5t-117.5 -75t-83 -116t-40 -148.5zM383 1352q0 88 88 88t88 -88q0 -92 -88 -92t-88 92zM731 1352q0 88 90 88q88 0 88 -88q0 -92 -88 -92q-90 0 -90 92z" />
    <glyph glyph-name="igrave" unicode="&#xec;" horiz-adv-x="561" 
d="M74 1528h157l236 -324h-92zM223 0v1049h115v-1049h-115z" />
    <glyph glyph-name="iacute" unicode="&#xed;" horiz-adv-x="561" 
d="M94 1204l238 324h157l-301 -324h-94zM221 0v1049h115v-1049h-115z" />
    <glyph glyph-name="icircumflex" unicode="&#xee;" horiz-adv-x="571" 
d="M-23 1200l213 281q43 55 96.5 53t98.5 -59l211 -275h-98l-213 234l-211 -234h-97zM229 0v1049h115v-1049h-115z" />
    <glyph glyph-name="idieresis" unicode="&#xef;" horiz-adv-x="567" 
d="M20 1352q0 88 89 88q88 0 88 -88q0 -92 -88 -92q-89 0 -89 92zM227 0v1049h113v-1049h-113zM369 1352q0 88 90 88q88 0 88 -88q0 -92 -88 -92q-90 0 -90 92z" />
    <glyph glyph-name="eth" unicode="&#xf0;" horiz-adv-x="1337" 
d="M141 528q0 115 38 214.5t106.5 173t165 115.5t215.5 42q242 0 381 -160v457q-61 -53 -152 -53q-43 0 -81 14.5t-70.5 31.5t-64.5 31.5t-65 14.5q-49 0 -78.5 -22.5t-60.5 -75.5q-16 12 -34.5 22t-34.5 21q72 141 206 141q47 0 85 -14.5t71 -31.5t63.5 -31.5t65.5 -14.5
q43 0 80 21.5t70 74.5v70h110v-1098q0 -80 -27.5 -165t-87 -155.5t-154.5 -116.5t-231 -46q-127 0 -223 40t-160.5 112.5t-98.5 171.5t-34 216zM260 530q0 -90 24.5 -170.5t75 -140t126 -95.5t180.5 -36q63 0 129.5 20.5t121 66.5t89 121t34.5 185v148q0 74 -27.5 137
t-76.5 109.5t-116.5 72t-147.5 25.5q-98 0 -175 -34t-129.5 -94.5t-80 -140.5t-27.5 -174z" />
    <glyph glyph-name="ntilde" unicode="&#xf1;" horiz-adv-x="1247" 
d="M188 0v934q88 61 207 101t236 40q219 0 337.5 -98t118.5 -311v-666h-116v647q0 326 -344 326q-47 0 -93.5 -8.5t-90.5 -21.5t-79.5 -30.5t-62.5 -31.5v-881h-113zM272 1300q72 141 207 142q47 0 85 -14.5t71 -32t63.5 -31.5t67.5 -14q41 0 78 21.5t69 74.5l72 -43
q-49 -74 -100 -106.5t-121 -32.5q-45 0 -83 14t-70.5 31.5t-63.5 32t-66 14.5q-47 0 -76.5 -22.5t-62.5 -73.5q-16 10 -35 20t-35 20z" />
    <glyph glyph-name="ograve" unicode="&#xf2;" 
d="M137 530q0 115 39 215.5t109.5 175t168 117.5t214.5 43q119 0 218 -42t169.5 -115.5t109.5 -175t39 -218.5q0 -119 -40 -219t-112.5 -174t-171 -115.5t-212.5 -41.5q-117 0 -214.5 41.5t-167 117.5t-109.5 175t-40 216zM254 532q0 -92 28.5 -175t82 -145t130 -97
t173.5 -35q94 0 169.5 33.5t131 95t86 144.5t30.5 179q0 92 -30.5 173t-86 142.5t-133 98.5t-167.5 37q-94 0 -171 -36t-131.5 -96t-83 -142.5t-28.5 -176.5zM391 1528h160l233 -324h-94z" />
    <glyph glyph-name="oacute" unicode="&#xf3;" 
d="M137 530q0 115 39 215.5t109.5 175t168 117.5t214.5 43q119 0 218 -42t169.5 -115.5t109.5 -175t39 -218.5q0 -119 -40 -219t-112.5 -174t-171 -115.5t-212.5 -41.5q-117 0 -214.5 41.5t-167 117.5t-109.5 175t-40 216zM254 532q0 -92 28.5 -175t82 -145t130 -97
t173.5 -35q94 0 169.5 33.5t131 95t86 144.5t30.5 179q0 92 -30.5 173t-86 142.5t-133 98.5t-167.5 37q-94 0 -171 -36t-131.5 -96t-83 -142.5t-28.5 -176.5zM549 1204l235 324h158l-301 -324h-92z" />
    <glyph glyph-name="ocircumflex" unicode="&#xf4;" 
d="M137 530q0 115 39 215.5t109.5 175t168 117.5t214.5 43q119 0 218 -42t169.5 -115.5t109.5 -175t39 -218.5q0 -119 -40 -219t-112.5 -174t-171 -115.5t-212.5 -41.5q-117 0 -214.5 41.5t-167 117.5t-109.5 175t-40 216zM254 532q0 -92 28.5 -175t82 -145t130 -97
t173.5 -35q94 0 169.5 33.5t131 95t86 144.5t30.5 179q0 92 -30.5 173t-86 142.5t-133 98.5t-167.5 37q-94 0 -171 -36t-131.5 -96t-83 -142.5t-28.5 -176.5zM352 1200l211 281q45 55 99.5 53t99.5 -59l207 -275h-97l-213 234l-210 -234h-97z" />
    <glyph glyph-name="otilde" unicode="&#xf5;" 
d="M137 530q0 115 39 215.5t109.5 175t168 117.5t214.5 43q119 0 218 -42t169.5 -115.5t109.5 -175t39 -218.5q0 -119 -40 -219t-112.5 -174t-171 -115.5t-212.5 -41.5q-117 0 -214.5 41.5t-167 117.5t-109.5 175t-40 216zM254 532q0 -92 28.5 -175t82 -145t130 -97
t173.5 -35q94 0 169.5 33.5t131 95t86 144.5t30.5 179q0 92 -30.5 173t-86 142.5t-133 98.5t-167.5 37q-94 0 -171 -36t-131.5 -96t-83 -142.5t-28.5 -176.5zM307 1300q74 141 209 142q45 0 83 -14.5t70.5 -32t64.5 -31.5t67 -14q41 0 77.5 21.5t69.5 74.5l72 -43
q-49 -74 -100.5 -106.5t-120.5 -32.5q-45 0 -82 14t-71 31.5t-64.5 32t-63.5 14.5q-49 0 -78.5 -22.5t-60.5 -73.5l-36 20z" />
    <glyph glyph-name="odieresis" unicode="&#xf6;" 
d="M137 530q0 115 39 215.5t109.5 175t168 117.5t214.5 43q119 0 218 -42t169.5 -115.5t109.5 -175t39 -218.5q0 -119 -40 -219t-112.5 -174t-171 -115.5t-212.5 -41.5q-117 0 -214.5 41.5t-167 117.5t-109.5 175t-40 216zM254 532q0 -92 28.5 -175t82 -145t130 -97
t173.5 -35q94 0 169.5 33.5t131 95t86 144.5t30.5 179q0 92 -30.5 173t-86 142.5t-133 98.5t-167.5 37q-94 0 -171 -36t-131.5 -96t-83 -142.5t-28.5 -176.5zM397 1352q0 88 90 88t91 -88q0 -92 -91 -92q-90 0 -90 92zM748 1352q0 88 90 88q86 0 86 -88q0 -92 -86 -92
q-90 0 -90 92z" />
    <glyph glyph-name="divide" unicode="&#xf7;" horiz-adv-x="1366" 
d="M143 702v105h1080v-105h-1080zM586 399q0 43 26.5 73t71.5 30q43 0 69.5 -30t26.5 -73q0 -96 -96 -96q-98 0 -98 96zM586 1108q0 43 26.5 70.5t71.5 27.5q96 0 96 -98q0 -41 -26.5 -70.5t-69.5 -29.5q-45 0 -71.5 29.5t-26.5 70.5z" />
    <glyph glyph-name="oslash" unicode="&#xf8;" 
d="M137 530q0 115 39 215.5t109.5 175t168 117.5t214.5 43q84 0 161 -24l50 123h110l-61 -160q127 -70 201.5 -197t74.5 -293q0 -119 -40 -219t-112.5 -174t-171 -115.5t-212.5 -41.5q-37 0 -74 6t-70 16l-53 -133h-113l68 168q-131 68 -210 197.5t-79 295.5zM254 532
q0 -129 54 -235.5t155 -163.5l330 830q-57 20 -125 20q-94 0 -171 -36t-131.5 -96t-83 -142.5t-28.5 -176.5zM559 94q25 -6 51.5 -10t57.5 -4q94 0 169.5 33.5t131 95t86 144.5t30.5 179q0 123 -53 225.5t-145 160.5z" />
    <glyph glyph-name="ugrave" unicode="&#xf9;" horiz-adv-x="1277" 
d="M188 389v662h113v-654q0 -70 19.5 -127t64.5 -98t116.5 -64.5t174.5 -23.5q72 0 149.5 11t130.5 28v928h115v-1006q-88 -29 -188.5 -47t-212.5 -18q-236 0 -359 103t-123 306zM383 1528h158l235 -324h-94z" />
    <glyph glyph-name="uacute" unicode="&#xfa;" horiz-adv-x="1277" 
d="M188 389v662h113v-654q0 -70 19.5 -127t64.5 -98t116.5 -64.5t174.5 -23.5q72 0 149.5 11t130.5 28v928h115v-1006q-88 -29 -188.5 -47t-212.5 -18q-236 0 -359 103t-123 306zM506 1204l237 324h160l-301 -324h-96z" />
    <glyph glyph-name="ucircumflex" unicode="&#xfb;" horiz-adv-x="1277" 
d="M188 389v662h113v-654q0 -70 19.5 -127t64.5 -98t116.5 -64.5t174.5 -23.5q72 0 149.5 11t130.5 28v928h115v-1006q-88 -29 -188.5 -47t-212.5 -18q-236 0 -359 103t-123 306zM322 1200l210 281q45 55 98.5 53t96.5 -59l211 -275h-100l-209 234l-213 -234h-94z" />
    <glyph glyph-name="udieresis" unicode="&#xfc;" horiz-adv-x="1277" 
d="M188 389v662h113v-654q0 -70 19.5 -127t64.5 -98t116.5 -64.5t174.5 -23.5q72 0 149.5 11t130.5 28v928h115v-1006q-88 -29 -188.5 -47t-212.5 -18q-236 0 -359 103t-123 306zM365 1352q0 88 88 88q90 0 90 -88q0 -92 -90 -92q-88 0 -88 92zM715 1352q0 88 88 88
q86 0 86 -88q0 -92 -86 -92q-88 0 -88 92z" />
    <glyph glyph-name="yacute" unicode="&#xfd;" horiz-adv-x="1345" 
d="M199 418v635h116v-629q0 -68 18.5 -130.5t59.5 -108.5t106.5 -73.5t164.5 -27.5q86 0 176 21.5t164 58.5v889h114v-1037q0 -127 -30.5 -228t-92 -174t-154.5 -112t-216 -39q-92 0 -166 15.5t-146 52.5l27 100q68 -31 132.5 -49t148.5 -18q98 0 169.5 32.5t119.5 90
t71 136.5t23 173v57q-80 -37 -167 -54t-180 -17q-215 0 -336.5 110.5t-121.5 325.5zM535 1204l237 324h160l-301 -324h-96z" />
    <glyph glyph-name="thorn" unicode="&#xfe;" horiz-adv-x="1155" 
d="M174 -451v1049v18v940h115v-636q66 72 161 111.5t220 39.5q115 0 209 -36t162.5 -104.5t106.5 -167.5t38 -226q0 -104 -31 -205t-97.5 -176.5t-169 -121.5t-241.5 -46q-82 0 -142.5 12t-137.5 37q-27 10 -39 10q-39 0 -39 -45v-453h-115zM289 186q94 -51 180 -74.5
t186 -23.5q106 0 183 36t127.5 95.5t74 141t23.5 174.5q0 92 -24.5 169.5t-75 135t-124 91.5t-171.5 34q-123 0 -208 -48.5t-128 -138.5q-23 -39 -33 -90t-10 -106v-396z" />
    <glyph glyph-name="ydieresis" unicode="&#xff;" horiz-adv-x="1316" 
d="M193 416v633h114v-627q0 -68 17.5 -129.5t58.5 -107.5t106.5 -73.5t163.5 -27.5q86 0 175.5 21.5t164.5 58.5v885h113v-1033q0 -125 -31 -226t-92 -173t-153.5 -112t-215.5 -40q-92 0 -164.5 15.5t-142.5 52.5l25 100q63 -31 129.5 -49t148.5 -18q98 0 170 32.5t119 89
t70.5 135.5t23.5 173v59q-84 -35 -169 -54t-179 -19q-211 0 -331.5 109.5t-120.5 324.5zM391 1352q0 88 90 88t90 -88q0 -92 -90 -92t-90 92zM741 1352q0 88 90 88q88 0 89 -88q0 -92 -89 -92q-90 0 -90 92z" />
    <glyph glyph-name="Abreve" unicode="&#x102;" horiz-adv-x="1400" 
d="M63 0q43 127 87.5 256t85 253t80.5 239.5t73 218.5q80 238 154 454q18 59 55 97t102 38q72 0 106 -37.5t54 -97.5l477 -1421h-129l-211 641h-591l-213 -641h-130zM438 752h523l-211 632q-8 25 -18.5 44.5t-29.5 19.5q-16 0 -27 -19.5t-20 -44.5z" />
    <glyph glyph-name="abreve" unicode="&#x103;" horiz-adv-x="1355" 
d="M141 516q0 113 36 214t103.5 178t166 122t225.5 45t220 -41t150 -110v129h111v-1053h-100q-4 51 -45 51q-10 0 -25.5 -4t-32.5 -10q-68 -25 -135 -39t-145 -14q-121 0 -218.5 37.5t-166 107.5t-106.5 168t-38 219zM258 516q0 -96 27.5 -174t81 -136.5t132.5 -90
t183 -31.5q98 0 194.5 29.5t161.5 68.5v428q0 14 -2 36t-4 34q-6 70 -36.5 125t-79 93t-111 57.5t-133.5 19.5q-106 0 -183 -36t-128.5 -98.5t-77 -146.5t-25.5 -178zM533 1390q88 -128 142 -137.5t129 110.5l84 136h98l-209 -274q-45 -57 -98 -58t-98 54l-211 278h94z" />
    <glyph glyph-name="Cacute" unicode="&#x106;" horiz-adv-x="1515" 
d="M150 776q0 170 51 315.5t146 251t230.5 166t303.5 60.5q152 0 287 -55.5t247 -178.5l-80 -88q-197 211 -458 211q-139 0 -251 -52t-190 -144.5t-119 -216t-41 -267.5q0 -143 42 -268t121 -217t191.5 -143.5t254.5 -51.5q129 0 247.5 44t225.5 151l69 -96
q-117 -113 -257 -163t-285 -50q-170 0 -306.5 59t-231.5 163.5t-146 251t-51 318.5zM748 1638l193 267h133l-240 -267h-86z" />
    <glyph glyph-name="cacute" unicode="&#x107;" horiz-adv-x="1179" 
d="M143 532q0 115 39 215.5t108.5 174t166 115.5t213.5 42q147 0 242.5 -44t177.5 -128l-82 -73q-68 72 -149 108.5t-191 36.5q-92 0 -168 -35t-128.5 -94t-82 -138t-29.5 -167q0 -213 114.5 -336t309.5 -123q98 0 188.5 38t167.5 101l62 -82q-182 -156 -432 -155
q-123 0 -221.5 40t-166 113.5t-103.5 172.5t-36 218zM559 1130l193 267h133l-240 -267h-86z" />
    <glyph glyph-name="Ccaron" unicode="&#x10c;" horiz-adv-x="1515" 
d="M150 776q0 170 51 315.5t146 251t230.5 166t303.5 60.5q152 0 287 -55.5t247 -178.5l-80 -88q-197 211 -458 211q-139 0 -251 -52t-190 -144.5t-119 -216t-41 -267.5q0 -143 42 -268t121 -217t191.5 -143.5t254.5 -51.5q129 0 247.5 44t225.5 151l69 -96
q-117 -113 -257 -163t-285 -50q-170 0 -306.5 59t-231.5 163.5t-146 251t-51 318.5zM544 2002l211 -231l213 231h98l-209 -274q-45 -57 -98 -58t-98 54l-211 278h94z" />
    <glyph glyph-name="ccaron" unicode="&#x10d;" horiz-adv-x="1179" 
d="M143 532q0 115 39 215.5t108.5 174t166 115.5t213.5 42q147 0 242.5 -44t177.5 -128l-82 -73q-68 72 -149 108.5t-191 36.5q-92 0 -168 -35t-128.5 -94t-82 -138t-29.5 -167q0 -213 114.5 -336t309.5 -123q98 0 188.5 38t167.5 101l62 -82q-182 -156 -432 -155
q-123 0 -221.5 40t-166 113.5t-103.5 172.5t-36 218zM376 1499l211 -231l213 231h98l-209 -274q-45 -57 -98 -58t-98 54l-211 278h94z" />
    <glyph glyph-name="Dcaron" unicode="&#x10e;" horiz-adv-x="1556" 
d="M229 0v1260q0 113 60.5 186.5t159.5 99.5q29 8 69.5 13.5t71.5 5.5h90q182 0 320.5 -64.5t231.5 -174t139 -252t46 -300.5t-44 -298t-132 -246.5t-220 -168t-304 -61.5h-488zM350 109h340q31 0 63.5 1t51.5 3q113 14 204 66t153.5 138t97 202t34.5 255q0 129 -36.5 252
t-111.5 217t-190.5 152.5t-273.5 58.5h-102q-98 0 -164 -47t-66 -156v-187q0 -81 1 -155.5t1 -148.5v-168q0 -92 -1 -207.5t-1 -275.5zM564 2002l211 -231l213 231h98l-209 -274q-45 -57 -98 -58t-98 54l-211 278h94z" />
    <glyph glyph-name="Dcroat" unicode="&#x110;" horiz-adv-x="1556" 
d="M4 694v100h703v-100h-703zM229 0v1260q0 113 60.5 186.5t159.5 99.5q29 8 69.5 13.5t71.5 5.5h90q182 0 320.5 -64.5t231.5 -174t139 -252t46 -300.5t-44 -298t-132 -246.5t-220 -168t-304 -61.5h-488zM350 109h340q31 0 63.5 1t51.5 3q113 14 204 66t153.5 138t97 202
t34.5 255q0 129 -36.5 252t-111.5 217t-190.5 152.5t-273.5 58.5h-102q-98 0 -164 -47t-66 -156v-187q0 -81 1 -155.5t1 -148.5v-168q0 -92 -1 -207.5t-1 -275.5z" />
    <glyph glyph-name="dcroat" unicode="&#x111;" horiz-adv-x="1359" 
d="M141 528q0 115 38 214.5t106.5 173t165 115.5t215.5 42q242 0 381 -160v656h110v-1569h-110v12q0 31 -10.5 40t-28.5 9q-10 0 -23.5 -4t-28.5 -8q-70 -25 -144.5 -43t-154.5 -18q-127 0 -223 40t-160.5 112.5t-98.5 171.5t-34 216zM260 530q0 -90 24.5 -172t75 -142
t126 -96t180.5 -36q115 0 209 37t165 78v430q0 74 -27.5 137t-76.5 109.5t-116.5 72t-147.5 25.5q-98 0 -175 -34t-129.5 -94.5t-80 -140.5t-27.5 -174zM658 1214v100h703v-100h-703z" />
    <glyph glyph-name="eogonek" unicode="&#x119;" horiz-adv-x="1273" 
d="M143 532q0 121 38 220.5t105.5 171t161 112.5t203.5 41q104 0 190.5 -34.5t148 -97t98 -148.5t42.5 -193q2 -16 4.5 -47t2.5 -39h-877q6 -197 115.5 -315.5t310.5 -118.5q106 0 195.5 31.5t167.5 87.5l51 -86q-94 -63 -194.5 -98t-229.5 -35q-125 0 -224.5 39.5
t-167 113.5t-104.5 174t-37 221zM264 614h750q-20 166 -110.5 265.5t-252.5 99.5q-80 0 -146.5 -25.5t-116.5 -75t-82 -116t-42 -148.5z" />
    <glyph glyph-name="ecaron" unicode="&#x11b;" horiz-adv-x="1273" 
d="M143 532q0 121 38 220.5t105.5 171t161 112.5t203.5 41q104 0 190.5 -34.5t148 -97t98 -148.5t42.5 -193q2 -16 4.5 -47t2.5 -39h-877q6 -197 115.5 -315.5t310.5 -118.5q106 0 195.5 31.5t167.5 87.5l51 -86q-94 -63 -194.5 -98t-229.5 -35q-125 0 -224.5 39.5
t-167 113.5t-104.5 174t-37 221zM264 614h750q-20 166 -110.5 265.5t-252.5 99.5q-80 0 -146.5 -25.5t-116.5 -75t-82 -116t-42 -148.5zM423 1499l211 -231l213 231h98l-209 -274q-45 -57 -98 -58t-98 54l-211 278h94z" />
    <glyph glyph-name="Lacute" unicode="&#x139;" horiz-adv-x="1181" 
d="M229 193v1363h119v-1357q0 -39 20.5 -64.5t65.5 -25.5h672v-109h-674q-90 0 -146.5 52.5t-56.5 140.5zM427 1498l193 267h133l-240 -267h-86z" />
    <glyph glyph-name="lacute" unicode="&#x13a;" horiz-adv-x="520" 
d="M203 0v1565h119v-1565h-119zM357 1502l193 267h133l-240 -267h-86z" />
    <glyph glyph-name="Lcaron" unicode="&#x13d;" horiz-adv-x="1181" 
d="M229 193v1363h119v-1357q0 -39 20.5 -64.5t65.5 -25.5h672v-109h-674q-90 0 -146.5 52.5t-56.5 140.5zM497 1996q0 49 26.5 71.5t63.5 22.5q49 0 72.5 -30.5t23.5 -79.5q0 -37 -13 -79t-33.5 -85t-45 -84t-49.5 -74l-43 12q35 76 54.5 127.5t25.5 112.5
q-43 10 -62.5 33.5t-19.5 52.5z" />
    <glyph glyph-name="Nacute" unicode="&#x143;" horiz-adv-x="1613" 
d="M229 0v1417q0 70 38 113t108 43q66 0 104.5 -38t73.5 -108q49 -100 107.5 -218.5t135 -271.5t174 -348.5t224.5 -451.5q20 -39 45 -39q29 0 29 43v1415h116v-1415q0 -70 -38.5 -110.5t-102.5 -40.5q-57 0 -95 26.5t-67 83.5q-35 68 -92 185.5t-125 253.5l-138 276
l-130 260q-59 119 -101 202t-51 103q-23 45 -37 62.5t-30 17.5q-29 0 -29 -43v-1417h-119zM768 1570l193 267h133l-240 -267h-86z" />
    <glyph glyph-name="nacute" unicode="&#x144;" horiz-adv-x="1277" 
d="M203 0v934q90 61 207.5 101t234.5 40q219 0 339 -98t120 -311v-666h-117v647q0 326 -346 326q-45 0 -92 -8.5t-90 -21.5t-80 -30.5t-64 -31.5v-881h-112zM582 1113l193 267h133l-240 -267h-86z" />
    <glyph glyph-name="Ncaron" unicode="&#x147;" horiz-adv-x="1613" 
d="M229 0v1417q0 70 38 113t108 43q66 0 104.5 -38t73.5 -108q49 -100 107.5 -218.5t135 -271.5t174 -348.5t224.5 -451.5q20 -39 45 -39q29 0 29 43v1415h116v-1415q0 -70 -38.5 -110.5t-102.5 -40.5q-57 0 -95 26.5t-67 83.5q-35 68 -92 185.5t-125 253.5l-138 276
l-130 260q-59 119 -101 202t-51 103q-23 45 -37 62.5t-30 17.5q-29 0 -29 -43v-1417h-119zM592 2002l211 -231l213 231h98l-209 -274q-45 -57 -98 -58t-98 54l-211 278h94z" />
    <glyph glyph-name="ncaron" unicode="&#x148;" horiz-adv-x="1277" 
d="M203 0v934q90 61 207.5 101t234.5 40q219 0 339 -98t120 -311v-666h-117v647q0 326 -346 326q-45 0 -92 -8.5t-90 -21.5t-80 -30.5t-64 -31.5v-881h-112zM425 1499l211 -231l213 231h98l-209 -274q-45 -57 -98 -58t-98 54l-211 278h94z" />
    <glyph glyph-name="Ohungarumlaut" unicode="&#x150;" horiz-adv-x="1708" 
d="M154 776q0 164 42 310.5t129 254t219 171t314 63.5q172 0 304 -63.5t220 -171t132.5 -254t44.5 -310.5q0 -158 -45.5 -302t-132.5 -254.5t-218 -177.5t-303 -67q-178 0 -312 64.5t-221 174.5t-130 254t-43 308zM274 778q0 -139 34 -265t105.5 -220t183.5 -149.5
t263 -55.5q152 0 259.5 56.5t177 151.5t102.5 220t33 262q0 141 -35 266t-106.5 218.5t-179 147.5t-253.5 54q-152 0 -262.5 -54t-182 -148.5t-105.5 -219.5t-34 -264zM955 1600l193 267h133l-240 -267h-86zM546 1600l193 267h133l-240 -267h-86z" />
    <glyph glyph-name="OE" unicode="&#x152;" horiz-adv-x="1986" 
d="M154 776q0 162 43 306.5t130 253t221 172t314 63.5q16 0 41 -1t47.5 -3t43 -5t30.5 -6h78h772v-110h-735v-563h655v-113h-655v-655h778v-115h-887q-78 -20 -164 -20q-178 0 -312 63t-223 173t-133 253t-44 307zM281 778q0 -141 34.5 -267t105.5 -220t182.5 -149.5
t268.5 -55.5q39 0 73 4t73 14v1344q-70 16 -152 16q-154 0 -264 -54t-182 -148.5t-105.5 -219.5t-33.5 -264z" />
    <glyph glyph-name="oe" unicode="&#x153;" horiz-adv-x="1968" 
d="M133 526q0 115 40 214.5t111.5 174t169 116.5t210.5 42q106 0 194 -33.5t160 -93.5q66 61 151.5 95t188.5 34q106 0 191 -35.5t146.5 -98t97.5 -151t44 -190.5q4 -35 8 -63q2 -14 2 -29h-872q4 -195 114.5 -307.5t305.5 -112.5q102 0 191 34t173 89l47 -92
q-98 -63 -196.5 -97t-225.5 -34q-225 0 -362 123q-72 -61 -162 -96t-196 -35q-115 0 -212.5 41.5t-168 115.5t-110.5 173t-40 216zM250 528q0 -92 28.5 -174t83 -141t131 -94t171.5 -35q84 0 154.5 29.5t123.5 83.5q-90 137 -90 338q0 98 22.5 179t67.5 146
q-55 53 -124.5 82t-153.5 29q-92 0 -169 -34t-131.5 -94.5t-84 -141.5t-29.5 -173zM975 610h741q-23 166 -109.5 264.5t-246.5 98.5t-261 -97.5t-124 -265.5z" />
    <glyph glyph-name="Racute" unicode="&#x154;" horiz-adv-x="1337" 
d="M229 0v1180v40q0 32 2 56q6 96 58.5 169t161.5 101q25 6 59.5 9.5t69.5 3.5h92q35 0 71.5 -3.5t63.5 -7.5q76 -12 143.5 -46t115.5 -86t76.5 -122.5t28.5 -160.5q0 -170 -93 -274.5t-240 -145.5q113 -180 222 -357.5t222 -355.5h-143q-88 139 -175 280.5t-173 280.5
q-47 76 -87 104.5t-112 28.5h-242v-694h-121zM350 803h330q76 0 142.5 19.5t116.5 59.5t79 102.5t29 145.5q0 119 -67 198t-169 108q-25 6 -57.5 9t-63.5 3h-131q-209 0 -209 -201v-444zM640 1625l193 267h133l-240 -267h-86z" />
    <glyph glyph-name="racute" unicode="&#x155;" horiz-adv-x="907" 
d="M201 0v829q0 76 48 130.5t130 82.5q51 16 104.5 25.5t104.5 9.5q102 0 184 -25.5t133 -88.5q-23 -18 -44 -36l-42 -36q-41 47 -103.5 64.5t-125.5 17.5q-45 0 -87 -6t-87 -25q-61 -25 -79 -62.5t-18 -95.5v-784h-118zM490 1155l193 267h133l-240 -267h-86z" />
    <glyph glyph-name="Rcaron" unicode="&#x158;" horiz-adv-x="1337" 
d="M229 0v1180v40q0 32 2 56q6 96 58.5 169t161.5 101q25 6 59.5 9.5t69.5 3.5h92q35 0 71.5 -3.5t63.5 -7.5q76 -12 143.5 -46t115.5 -86t76.5 -122.5t28.5 -160.5q0 -170 -93 -274.5t-240 -145.5q113 -180 222 -357.5t222 -355.5h-143q-88 139 -175 280.5t-173 280.5
q-47 76 -87 104.5t-112 28.5h-242v-694h-121zM350 803h330q76 0 142.5 19.5t116.5 59.5t79 102.5t29 145.5q0 119 -67 198t-169 108q-25 6 -57.5 9t-63.5 3h-131q-209 0 -209 -201v-444zM455 2002l211 -231l213 231h98l-209 -274q-45 -57 -98 -58t-98 54l-211 278h94z" />
    <glyph glyph-name="rcaron" unicode="&#x159;" horiz-adv-x="907" 
d="M201 0v829q0 76 48 130.5t130 82.5q51 16 104.5 25.5t104.5 9.5q102 0 184 -25.5t133 -88.5q-23 -18 -44 -36l-42 -36q-41 47 -103.5 64.5t-125.5 17.5q-45 0 -87 -6t-87 -25q-61 -25 -79 -62.5t-18 -95.5v-784h-118zM240 1499l211 -231l213 231h98l-209 -274
q-45 -57 -98 -58t-98 54l-211 278h94z" />
    <glyph glyph-name="sacute" unicode="&#x15b;" horiz-adv-x="1054" 
d="M104 156l93 59q45 -78 121.5 -108.5t199.5 -30.5q170 0 239.5 47t69.5 127q0 49 -22.5 85t-60 65.5t-91 49t-116.5 37.5q-188 53 -287.5 124t-99.5 200t97 196.5t277 67.5q49 0 102.5 -4t103.5 -21.5t96 -49t77 -87.5l-94 -51q-43 72 -123 94.5t-168 22.5q-41 0 -85 -6
t-82 -23.5t-61.5 -47.5t-23.5 -79q0 -37 11.5 -66.5t45 -57t92 -53t150.5 -50.5q76 -20 143.5 -47t119 -66t81 -93t29.5 -126q0 -61 -18.5 -112.5t-67.5 -90t-132 -61.5t-210 -23q-66 0 -127 10.5t-114.5 31t-95.5 54.5t-69 83zM485 1149l193 267h133l-240 -267h-86z" />
    <glyph glyph-name="Scedilla" unicode="&#x15e;" horiz-adv-x="1304" 
d="M123 225q25 18 51.5 34.5t52.5 35.5q66 -111 169.5 -152t254.5 -41q209 0 302.5 83t93.5 210q0 80 -32 136.5t-89.5 97.5t-132 70.5t-158.5 58.5q-100 35 -182 72.5t-139.5 91t-88 123t-30.5 167.5q0 76 27.5 140.5t83.5 112.5t143.5 75t209.5 27q59 0 124 -7.5
t127.5 -29t117.5 -65.5t100 -115q-25 -18 -50 -32.5t-52 -33.5q-33 53 -75 87t-91 52.5t-101 25.5t-106 7q-178 0 -256 -63.5t-78 -173.5q0 -55 14.5 -102.5t55.5 -90.5t113.5 -82t191.5 -78q100 -31 186.5 -67.5t151 -90t100 -127t35.5 -173.5q0 -82 -27.5 -158t-89 -134.5
t-164 -92t-249.5 -33.5q-80 0 -157 11t-144.5 41t-121.5 73.5t-91 109.5zM439 -350l27 74q55 -33 100 -45.5t84 -12.5q59 0 88 24.5t29 61.5q0 84 -99 84q-47 0 -94 -12q4 31 12.5 74t14.5 79q8 45 16 95h76q-2 -20 -6 -41q-4 -18 -6 -39t-6 -39q-8 -37 34 -39
q74 -4 115 -44t41 -108q0 -88 -60.5 -131t-146.5 -43h-6q-51 2 -104.5 14.5t-108.5 47.5z" />
    <glyph glyph-name="scedilla" unicode="&#x15f;" horiz-adv-x="1054" 
d="M104 156l93 59q45 -78 121.5 -108.5t199.5 -30.5q170 0 239.5 47t69.5 127q0 49 -22.5 85t-60 65.5t-91 49t-116.5 37.5q-188 53 -287.5 124t-99.5 200t97 196.5t277 67.5q49 0 102.5 -4t103.5 -21.5t96 -49t77 -87.5l-94 -51q-43 72 -123 94.5t-168 22.5q-41 0 -85 -6
t-82 -23.5t-61.5 -47.5t-23.5 -79q0 -37 11.5 -66.5t45 -57t92 -53t150.5 -50.5q76 -20 143.5 -47t119 -66t81 -93t29.5 -126q0 -61 -18.5 -112.5t-67.5 -90t-132 -61.5t-210 -23q-66 0 -127 10.5t-114.5 31t-95.5 54.5t-69 83zM314 -350l27 74q55 -33 100 -45.5t84 -12.5
q59 0 88 24.5t29 61.5q0 84 -99 84q-47 0 -94 -12q4 31 12.5 74t14.5 79q8 45 16 95h76q-2 -20 -6 -41q-4 -18 -6 -39t-6 -39q-8 -37 34 -39q74 -4 115 -44t41 -108q0 -88 -60.5 -131t-146.5 -43h-6q-51 2 -104.5 14.5t-108.5 47.5z" />
    <glyph glyph-name="Scaron" unicode="&#x160;" horiz-adv-x="1304" 
d="M123 225q25 18 51.5 34.5t52.5 35.5q66 -111 169.5 -152t254.5 -41q209 0 302.5 83t93.5 210q0 80 -32 136.5t-89.5 97.5t-132 70.5t-158.5 58.5q-100 35 -182 72.5t-139.5 91t-88 123t-30.5 167.5q0 76 27.5 140.5t83.5 112.5t143.5 75t209.5 27q59 0 124 -7.5
t127.5 -29t117.5 -65.5t100 -115q-25 -18 -50 -32.5t-52 -33.5q-33 53 -75 87t-91 52.5t-101 25.5t-106 7q-178 0 -256 -63.5t-78 -173.5q0 -55 14.5 -102.5t55.5 -90.5t113.5 -82t191.5 -78q100 -31 186.5 -67.5t151 -90t100 -127t35.5 -173.5q0 -82 -27.5 -158t-89 -134.5
t-164 -92t-249.5 -33.5q-80 0 -157 11t-144.5 41t-121.5 73.5t-91 109.5zM438 2002l211 -231l213 231h98l-209 -274q-45 -57 -98 -58t-98 54l-211 278h94z" />
    <glyph glyph-name="scaron" unicode="&#x161;" horiz-adv-x="1054" 
d="M104 156l93 59q45 -78 121.5 -108.5t199.5 -30.5q170 0 239.5 47t69.5 127q0 49 -22.5 85t-60 65.5t-91 49t-116.5 37.5q-188 53 -287.5 124t-99.5 200t97 196.5t277 67.5q49 0 102.5 -4t103.5 -21.5t96 -49t77 -87.5l-94 -51q-43 72 -123 94.5t-168 22.5q-41 0 -85 -6
t-82 -23.5t-61.5 -47.5t-23.5 -79q0 -37 11.5 -66.5t45 -57t92 -53t150.5 -50.5q76 -20 143.5 -47t119 -66t81 -93t29.5 -126q0 -61 -18.5 -112.5t-67.5 -90t-132 -61.5t-210 -23q-66 0 -127 10.5t-114.5 31t-95.5 54.5t-69 83zM313 1499l211 -231l213 231h98l-209 -274
q-45 -57 -98 -58t-98 54l-211 278h94z" />
    <glyph glyph-name="uni0162" unicode="&#x162;" horiz-adv-x="1707" 
 />
    <glyph glyph-name="uni0163" unicode="&#x163;" horiz-adv-x="1707" 
d="M581 313v1026h118v-286h361v-111h-361v-610q0 -115 51.5 -177.5t170.5 -62.5q59 0 114.5 13.5t102.5 29.5v-102q-49 -23 -113.5 -32t-122.5 -9q-152 0 -236.5 83.5t-84.5 237.5zM759 -140q0 49 26.5 71.5t63.5 22.5q51 0 72.5 -30.5t21.5 -80.5q0 -37 -13 -78.5
t-32.5 -84.5t-44 -84t-49.5 -74l-43 12q31 76 51.5 127t28.5 113q-45 8 -63.5 31.5t-18.5 54.5z" />
    <glyph glyph-name="Tcaron" unicode="&#x164;" horiz-adv-x="1173" 
d="M55 1448v108h1063v-108h-473v-1448h-119v1448h-471zM373 2002l211 -231l213 231h98l-209 -274q-45 -57 -98 -58t-98 54l-211 278h94z" />
    <glyph glyph-name="Uring" unicode="&#x16e;" horiz-adv-x="1552" 
d="M559 1899l211 -231l213 231h98l-209 -274q-45 -57 -98 -58t-98 54l-211 278h94zM229 520v1036h121v-1013q0 -45 3 -94.5t9 -79.5q27 -123 132.5 -203t314.5 -80q43 0 97.5 6t107.5 15.5t100 21.5t78 27v1400h119v-1488q-104 -35 -235.5 -65t-270.5 -30q-227 0 -364.5 86
t-186.5 240q-12 43 -18.5 99t-6.5 122z" />
    <glyph glyph-name="Uhungarumlaut" unicode="&#x170;" horiz-adv-x="1552" 
d="M229 520v1036h121v-1013q0 -45 3 -94.5t9 -79.5q27 -123 132.5 -203t314.5 -80q43 0 97.5 6t107.5 15.5t100 21.5t78 27v1400h119v-1488q-104 -35 -235.5 -65t-270.5 -30q-227 0 -364.5 86t-186.5 240q-12 43 -18.5 99t-6.5 122zM866 1578l193 267h133l-240 -267h-86z
M457 1578l193 267h133l-240 -267h-86z" />
    <glyph glyph-name="Ydieresis" unicode="&#x178;" horiz-adv-x="1239" 
d="M47 1556h139l435 -765l438 765h135l-440 -759q-8 -16 -20.5 -39t-25 -50.5t-19.5 -59.5t-7 -62v-586h-123v586q0 57 -27.5 114.5t-50.5 96.5zM354 1776q0 88 90 88q88 0 88 -88q0 -92 -88 -93q-45 0 -67.5 25t-22.5 68zM702 1776q0 88 93 88q88 0 88 -88q0 -92 -88 -93
q-45 0 -69 25t-24 68z" />
    <glyph glyph-name="Zacute" unicode="&#x179;" horiz-adv-x="1296" 
d="M113 106q0 37 16 70t41 66q156 211 305.5 416.5t267.5 371.5q137 193 265 371q12 16 8 30.5t-29 14.5h-770v110h805q59 0 95 -23.5t36 -76.5q0 -31 -13.5 -63.5t-52.5 -85.5q-61 -84 -137 -188.5t-156.5 -219.5t-162.5 -227.5t-153.5 -212t-128 -178t-89.5 -119.5
q-16 -25 -10 -38t29 -13h903v-111h-934q-72 0 -103.5 30.5t-31.5 75.5zM675 1658l193 267h133l-240 -267h-86z" />
    <glyph glyph-name="zacute" unicode="&#x17a;" horiz-adv-x="1050" 
d="M139 86q0 37 19.5 70.5t46.5 66.5q14 16 55 70.5t97.5 126.5t120 152.5t119.5 152.5t97 124t51 66q25 31 -18 31h-526v107h567q55 0 87 -20.5t32 -65.5q0 -27 -12.5 -54.5t-45.5 -72.5q-57 -72 -137 -175.5t-159.5 -205t-146.5 -188.5t-101 -130q-12 -18 -13 -26
q0 -8 11 -9h628v-106h-667q-45 0 -75 22.5t-30 63.5zM484 1136l193 267h133l-240 -267h-86z" />
    <glyph glyph-name="zdotaccent" unicode="&#x17c;" horiz-adv-x="1050" 
d="M139 86q0 37 19.5 70.5t46.5 66.5q14 16 55 70.5t97.5 126.5t120 152.5t119.5 152.5t97 124t51 66q25 31 -18 31h-526v107h567q55 0 87 -20.5t32 -65.5q0 -27 -12.5 -54.5t-45.5 -72.5q-57 -72 -137 -175.5t-159.5 -205t-146.5 -188.5t-101 -130q-12 -18 -13 -26
q0 -8 11 -9h628v-106h-667q-45 0 -75 22.5t-30 63.5z" />
    <glyph glyph-name="Zcaron" unicode="&#x17d;" horiz-adv-x="1296" 
d="M113 106q0 37 16 70t41 66q156 211 305.5 416.5t267.5 371.5q137 193 265 371q12 16 8 30.5t-29 14.5h-770v110h805q59 0 95 -23.5t36 -76.5q0 -31 -13.5 -63.5t-52.5 -85.5q-61 -84 -137 -188.5t-156.5 -219.5t-162.5 -227.5t-153.5 -212t-128 -178t-89.5 -119.5
q-16 -25 -10 -38t29 -13h903v-111h-934q-72 0 -103.5 30.5t-31.5 75.5zM434 2002l211 -231l213 231h98l-209 -274q-45 -57 -98 -58t-98 54l-211 278h94z" />
    <glyph glyph-name="zcaron" unicode="&#x17e;" horiz-adv-x="1050" 
d="M139 86q0 37 19.5 70.5t46.5 66.5q14 16 55 70.5t97.5 126.5t120 152.5t119.5 152.5t97 124t51 66q25 31 -18 31h-526v107h567q55 0 87 -20.5t32 -65.5q0 -27 -12.5 -54.5t-45.5 -72.5q-57 -72 -137 -175.5t-159.5 -205t-146.5 -188.5t-101 -130q-12 -18 -13 -26
q0 -8 11 -9h628v-106h-667q-45 0 -75 22.5t-30 63.5zM311 1499l211 -231l213 231h98l-209 -274q-45 -57 -98 -58t-98 54l-211 278h94z" />
    <glyph glyph-name="circumflex" unicode="&#x2c6;" horiz-adv-x="870" 
d="M129 1200l211 281q45 55 98.5 53t96.5 -59l208 -275h-98l-211 234l-213 -234h-92z" />
    <glyph glyph-name="caron" unicode="&#x2c7;" horiz-adv-x="1707" 
d="M559 1499l211 -231l213 231h98l-209 -274q-45 -57 -98 -58t-98 54l-211 278h94z" />
    <glyph glyph-name="breve" unicode="&#x2d8;" horiz-adv-x="1707" 
d="M628 1390q88 -128 142 -137.5t129 110.5l84 136h98l-209 -274q-45 -57 -98 -58t-98 54l-211 278h94z" />
    <glyph glyph-name="tilde" unicode="&#x2dc;" horiz-adv-x="942" 
d="M115 1268q74 141 209 141q45 0 82.5 -14.5t70.5 -31.5t64.5 -31.5t66.5 -14.5q43 0 79 21.5t69 74.5l71 -43q-49 -74 -100 -107.5t-121 -33.5q-45 0 -82 15.5t-70.5 32.5t-64.5 31.5t-63 14.5q-49 0 -79 -22.5t-61 -75.5q-18 12 -35.5 21.5t-35.5 21.5z" />
    <glyph glyph-name="endash" unicode="&#x2013;" horiz-adv-x="1208" 
d="M55 514v102h1100v-102h-1100z" />
    <glyph glyph-name="emdash" unicode="&#x2014;" horiz-adv-x="1875" 
d="M59 514v102h1760v-102h-1760z" />
    <glyph glyph-name="quoteleft" unicode="&#x2018;" horiz-adv-x="446" 
d="M133 1278q0 37 13.5 79t33 85t45 84t49.5 73l45 -12q-37 -72 -55 -124t-24 -113q41 -12 60 -35t19 -51q0 -51 -24.5 -75t-67.5 -24q-45 0 -69.5 32t-24.5 81z" />
    <glyph glyph-name="quoteright" unicode="&#x2019;" horiz-adv-x="446" 
d="M133 1493q0 49 26.5 71.5t63.5 22.5q49 0 72.5 -30.5t23.5 -79.5q0 -37 -13 -79t-33.5 -85t-45 -84t-49.5 -74l-43 12q35 76 54.5 127.5t25.5 112.5q-43 10 -62.5 33.5t-19.5 52.5z" />
    <glyph glyph-name="quotesinglbase" unicode="&#x201a;" horiz-adv-x="446" 
d="M131 78q0 49 26.5 71.5t63.5 22.5q49 0 71.5 -31.5t22.5 -79.5q0 -37 -13 -78.5t-32.5 -84.5t-44 -84t-49.5 -74l-43 10q35 78 53.5 128t26.5 114q-43 10 -62.5 33.5t-19.5 52.5z" />
    <glyph glyph-name="quotedblleft" unicode="&#x201c;" horiz-adv-x="724" 
d="M117 1278q0 37 13 79t33.5 85t45 84t49.5 73l43 -12q-33 -70 -53.5 -123t-24.5 -114q43 -12 61.5 -35t18.5 -51q0 -51 -24.5 -75t-65.5 -24q-47 0 -71.5 32t-24.5 81zM412 1278q0 37 13 79t32.5 85t45 84t50.5 73l45 -12q-35 -70 -54.5 -123t-25.5 -114q41 -12 61.5 -35
t20.5 -51q0 -51 -25.5 -75t-68.5 -24q-45 0 -69.5 32t-24.5 81z" />
    <glyph glyph-name="quotedblright" unicode="&#x201d;" horiz-adv-x="724" 
d="M129 1493q0 49 26.5 71.5t63.5 22.5q49 0 71.5 -30.5t22.5 -79.5q0 -37 -13 -79t-32.5 -85t-44 -84t-49.5 -74l-43 12q35 78 53.5 128.5t24.5 111.5q-41 10 -60.5 33.5t-19.5 52.5zM424 1493q0 49 26.5 71.5t65.5 22.5q47 0 70.5 -30.5t23.5 -79.5q0 -37 -13 -79
t-32.5 -85t-44 -84t-49.5 -74l-45 12q37 76 55.5 127.5t22.5 112.5q-39 10 -59.5 33.5t-20.5 52.5z" />
    <glyph glyph-name="quotedblbase" unicode="&#x201e;" horiz-adv-x="722" 
d="M127 78q0 49 25.5 71.5t62.5 22.5q51 0 73.5 -31.5t22.5 -79.5q0 -37 -13 -78.5t-32.5 -84.5t-45 -84t-50.5 -74l-43 10q37 76 54.5 127t23.5 115q-41 10 -59.5 33.5t-18.5 52.5zM424 78q0 49 25.5 71.5t64.5 22.5q47 0 70.5 -31.5t23.5 -79.5q0 -37 -13 -78.5
t-32.5 -84.5t-45 -84t-50.5 -74l-43 10q37 78 55.5 128t24.5 114q-41 10 -60.5 33.5t-19.5 52.5z" />
    <glyph glyph-name="bullet" unicode="&#x2022;" horiz-adv-x="784" 
d="M147 670q0 74 17.5 120t54.5 76q53 47 172 47q139 0 197 -71q47 -57 47 -172q0 -123 -57 -185q-31 -33 -78 -44t-111 -11q-119 0 -172 43q-70 56 -70 197z" />
    <glyph glyph-name="ellipsis" unicode="&#x2026;" horiz-adv-x="1329" 
d="M147 68q0 80 82 79q80 0 80 -79q0 -80 -80 -80q-82 0 -82 80zM582 68q0 80 82 79q80 0 79 -79q0 -80 -79 -80q-82 0 -82 80zM1016 68q0 80 84 79q80 0 80 -79q0 -80 -80 -80q-84 0 -84 80z" />
    <glyph glyph-name="guilsinglleft" unicode="&#x2039;" horiz-adv-x="612" 
d="M145 432l211 281h119l-209 -281l209 -282h-119z" />
    <glyph glyph-name="guilsinglright" unicode="&#x203a;" horiz-adv-x="612" 
d="M137 150l207 282l-207 281h117l213 -281l-213 -282h-117z" />
    <glyph glyph-name="Euro" unicode="&#x20ac;" horiz-adv-x="1495" 
d="M74 461l10 98h170q-4 45 -3 88t5 80h-86l12 100h94q20 74 59.5 143.5t96.5 129.5q88 92 202 140t255 48q131 0 244.5 -48t218.5 -153l-82 -73q-86 86 -176 126t-203 40q-119 0 -212 -39t-169 -119q-78 -84 -117 -195h748l-13 -100h-759q-12 -80 -2 -168h677l-12 -98h-645
q16 -63 46 -117.5t71 -97.5q147 -164 387 -164q104 0 206.5 42t176.5 120l65 -86q-98 -94 -210.5 -137.5t-237.5 -43.5q-287 0 -465 185q-59 63 -99 139t-57 160h-196z" />
    <glyph glyph-name="trademark" unicode="&#x2122;" horiz-adv-x="1804" 
d="M137 1481v75h582v-75h-248v-705h-86v705h-248zM823 774v707q0 39 22.5 59.5t59.5 20.5t58.5 -18.5t31.5 -45.5q25 -55 56.5 -129t62.5 -143q37 -80 74 -166q37 86 74 166q31 70 62.5 143.5t55.5 128.5q10 27 32 45.5t58 18.5q35 0 58.5 -20.5t23.5 -59.5v-707h-82v696
q0 10 -6 11q-4 0 -10 -15q-27 -59 -65.5 -145t-77.5 -168q-41 -96 -88 -197h-74q-45 96 -88 193q-37 78 -76 168t-67 153q-4 10 -9 11q-6 0 -6 -11v-696h-80z" />
    <glyph glyph-name="uniE000" unicode="&#xe000;" horiz-adv-x="1055" 
d="M0 1055h1055v-1055h-1055v1055z" />
    <glyph glyph-name="uniFB01" unicode="&#xfb01;" horiz-adv-x="1366" 
d="M211 0v1151q0 84 21.5 154.5t64.5 123t109.5 81t152.5 28.5q59 0 125 -17.5t129 -56.5l-35 -98q-72 43 -122 55.5t-91 12.5q-129 0 -184 -80t-55 -203v-147h391v-109h-391v-895h-115zM999 1372q0 88 88 88q90 0 91 -88q0 -94 -91 -94q-88 0 -88 94zM1030 0v1049h115
v-1049h-115z" />
    <glyph glyph-name="uniFB02" unicode="&#xfb02;" 
d="M211 0v1151q0 84 21.5 154.5t64.5 123t108.5 81t153.5 28.5q59 0 125 -17.5t129 -56.5l-37 -98q-70 43 -120 55.5t-91 12.5q-129 0 -184 -80t-55 -203v-147h391v-109h-391v-895h-115zM1020 0v1556h117v-1556h-117z" />
    <glyph glyph-name="uniFB03" unicode="&#xfb03;" horiz-adv-x="2203" 
d="M1833 1372q0 88 88 88q90 0 90 -88q0 -94 -90 -94q-88 0 -88 94zM1863 0v1053h115v-1053h-115zM1030 0v1155q0 84 21.5 155.5t65.5 124t109.5 81t153.5 28.5q59 0 126 -16.5t132 -57.5l-39 -94q-70 41 -121 53.5t-94 12.5q-129 0 -184 -80t-55 -205v-145h395v-107h-395
v-905h-115zM211 0v1155q0 84 21.5 155.5t65.5 124t109.5 81t153.5 28.5q59 0 126 -16.5t132 -57.5l-39 -94q-70 41 -121 53.5t-94 12.5q-129 0 -184 -80t-55 -205v-145h395v-107h-395v-905h-115z" />
    <glyph glyph-name="uniFB04" unicode="&#xfb04;" horiz-adv-x="2158" 
d="M1839 0v1565h119v-1565h-119zM1030 0v1155q0 84 21.5 155.5t65.5 124t109.5 81t153.5 28.5q59 0 126 -16.5t132 -57.5l-39 -94q-70 41 -121 53.5t-94 12.5q-129 0 -184 -80t-55 -205v-145h395v-107h-395v-905h-115zM211 0v1155q0 84 21.5 155.5t65.5 124t109.5 81
t153.5 28.5q59 0 126 -16.5t132 -57.5l-39 -94q-70 41 -121 53.5t-94 12.5q-129 0 -184 -80t-55 -205v-145h395v-107h-395v-905h-115z" />
    <glyph glyph-name="NULL" horiz-adv-x="0" 
 />
    </font>
</defs>
</svg>
